  0
SECTION
  2
HEADER
  9
$ACADVER
  1
AC1015
  9
$ACADMAINTVER
 70
     6
  9
$DWGCODEPAGE
  3
ANSI_1252
  9
$INSBASE
 10
0.0
 20
0.0
 30
0.0
  9
$EXTMIN
 10
-104.7270646427525
 20
0.0
 30
0.0
  9
$EXTMAX
 10
0.27293535724763
 20
148.5
 30
0.0
  9
$LIMMIN
 10
0.0
 20
0.0
  9
$LIMMAX
 10
12.0
 20
9.0
  9
$ORTHOMODE
 70
     0
  9
$REGENMODE
 70
     1
  9
$FILLMODE
 70
     1
  9
$QTEXTMODE
 70
     0
  9
$MIRRTEXT
 70
     1
  9
$LTSCALE
 40
1.0
  9
$ATTMODE
 70
     1
  9
$TEXTSIZE
 40
0.2
  9
$TRACEWID
 40
0.05
  9
$TEXTSTYLE
  7
Standard
  9
$CLAYER
  8
0
  9
$CELTYPE
  6
ByLayer
  9
$CECOLOR
 62
   256
  9
$CELTSCALE
 40
1.0
  9
$DISPSILH
 70
     0
  9
$DIMSCALE
 40
1.0
  9
$DIMASZ
 40
0.18
  9
$DIMEXO
 40
0.0625
  9
$DIMDLI
 40
0.38
  9
$DIMRND
 40
0.0
  9
$DIMDLE
 40
0.0
  9
$DIMEXE
 40
0.18
  9
$DIMTP
 40
0.0
  9
$DIMTM
 40
0.0
  9
$DIMTXT
 40
0.18
  9
$DIMCEN
 40
0.09
  9
$DIMTSZ
 40
0.0
  9
$DIMTOL
 70
     0
  9
$DIMLIM
 70
     0
  9
$DIMTIH
 70
     1
  9
$DIMTOH
 70
     1
  9
$DIMSE1
 70
     0
  9
$DIMSE2
 70
     0
  9
$DIMTAD
 70
     0
  9
$DIMZIN
 70
     0
  9
$DIMBLK
  1

  9
$DIMASO
 70
     1
  9
$DIMSHO
 70
     1
  9
$DIMPOST
  1

  9
$DIMAPOST
  1

  9
$DIMALT
 70
     0
  9
$DIMALTD
 70
     2
  9
$DIMALTF
 40
25.4
  9
$DIMLFAC
 40
1.0
  9
$DIMTOFL
 70
     0
  9
$DIMTVP
 40
0.0
  9
$DIMTIX
 70
     0
  9
$DIMSOXD
 70
     0
  9
$DIMSAH
 70
     0
  9
$DIMBLK1
  1

  9
$DIMBLK2
  1

  9
$DIMSTYLE
  2
Standard
  9
$DIMCLRD
 70
     0
  9
$DIMCLRE
 70
     0
  9
$DIMCLRT
 70
     0
  9
$DIMTFAC
 40
1.0
  9
$DIMGAP
 40
0.09
  9
$DIMJUST
 70
     0
  9
$DIMSD1
 70
     0
  9
$DIMSD2
 70
     0
  9
$DIMTOLJ
 70
     1
  9
$DIMTZIN
 70
     0
  9
$DIMALTZ
 70
     0
  9
$DIMALTTZ
 70
     0
  9
$DIMUPT
 70
     0
  9
$DIMDEC
 70
     4
  9
$DIMTDEC
 70
     4
  9
$DIMALTU
 70
     2
  9
$DIMALTTD
 70
     2
  9
$DIMTXSTY
  7
Standard
  9
$DIMAUNIT
 70
     0
  9
$DIMADEC
 70
     0
  9
$DIMALTRND
 40
0.0
  9
$DIMAZIN
 70
     0
  9
$DIMDSEP
 70
    46
  9
$DIMATFIT
 70
     3
  9
$DIMFRAC
 70
     0
  9
$DIMLDRBLK
  1

  9
$DIMLUNIT
 70
     2
  9
$DIMLWD
 70
    -2
  9
$DIMLWE
 70
    -2
  9
$DIMTMOVE
 70
     0
  9
$LUNITS
 70
     2
  9
$LUPREC
 70
     4
  9
$SKETCHINC
 40
0.1
  9
$FILLETRAD
 40
0.5
  9
$AUNITS
 70
     0
  9
$AUPREC
 70
     0
  9
$MENU
  1
.
  9
$ELEVATION
 40
0.0
  9
$PELEVATION
 40
0.0
  9
$THICKNESS
 40
0.0
  9
$LIMCHECK
 70
     0
  9
$CHAMFERA
 40
0.5
  9
$CHAMFERB
 40
0.5
  9
$CHAMFERC
 40
1.0
  9
$CHAMFERD
 40
0.0
  9
$SKPOLY
 70
     0
  9
$TDCREATE
 40
2456997.42932066
  9
$TDUCREATE
 40
2456997.387653993
  9
$TDUPDATE
 40
2456997.429320845
  9
$TDUUPDATE
 40
2456997.387654178
  9
$TDINDWG
 40
0.0000000116
  9
$TDUSRTIMER
 40
0.0000000116
  9
$USRTIMER
 70
     1
  9
$ANGBASE
 50
0.0
  9
$ANGDIR
 70
     0
  9
$PDMODE
 70
     0
  9
$PDSIZE
 40
0.0
  9
$PLINEWID
 40
0.0
  9
$SPLFRAME
 70
     0
  9
$SPLINETYPE
 70
     6
  9
$SPLINESEGS
 70
     8
  9
$HANDSEED
  5
1C9
  9
$SURFTAB1
 70
     6
  9
$SURFTAB2
 70
     6
  9
$SURFTYPE
 70
     6
  9
$SURFU
 70
     6
  9
$SURFV
 70
     6
  9
$UCSBASE
  2

  9
$UCSNAME
  2

  9
$UCSORG
 10
0.0
 20
0.0
 30
0.0
  9
$UCSXDIR
 10
1.0
 20
0.0
 30
0.0
  9
$UCSYDIR
 10
0.0
 20
1.0
 30
0.0
  9
$UCSORTHOREF
  2

  9
$UCSORTHOVIEW
 70
     0
  9
$UCSORGTOP
 10
0.0
 20
0.0
 30
0.0
  9
$UCSORGBOTTOM
 10
0.0
 20
0.0
 30
0.0
  9
$UCSORGLEFT
 10
0.0
 20
0.0
 30
0.0
  9
$UCSORGRIGHT
 10
0.0
 20
0.0
 30
0.0
  9
$UCSORGFRONT
 10
0.0
 20
0.0
 30
0.0
  9
$UCSORGBACK
 10
0.0
 20
0.0
 30
0.0
  9
$PUCSBASE
  2

  9
$PUCSNAME
  2

  9
$PUCSORG
 10
0.0
 20
0.0
 30
0.0
  9
$PUCSXDIR
 10
1.0
 20
0.0
 30
0.0
  9
$PUCSYDIR
 10
0.0
 20
1.0
 30
0.0
  9
$PUCSORTHOREF
  2

  9
$PUCSORTHOVIEW
 70
     0
  9
$PUCSORGTOP
 10
0.0
 20
0.0
 30
0.0
  9
$PUCSORGBOTTOM
 10
0.0
 20
0.0
 30
0.0
  9
$PUCSORGLEFT
 10
0.0
 20
0.0
 30
0.0
  9
$PUCSORGRIGHT
 10
0.0
 20
0.0
 30
0.0
  9
$PUCSORGFRONT
 10
0.0
 20
0.0
 30
0.0
  9
$PUCSORGBACK
 10
0.0
 20
0.0
 30
0.0
  9
$USERI1
 70
     0
  9
$USERI2
 70
     0
  9
$USERI3
 70
     0
  9
$USERI4
 70
     0
  9
$USERI5
 70
     0
  9
$USERR1
 40
18.1
  9
$USERR2
 40
0.0
  9
$USERR3
 40
0.0
  9
$USERR4
 40
0.0
  9
$USERR5
 40
0.0
  9
$WORLDVIEW
 70
     1
  9
$SHADEDGE
 70
     3
  9
$SHADEDIF
 70
    70
  9
$TILEMODE
 70
     1
  9
$MAXACTVP
 70
    64
  9
$PINSBASE
 10
0.0
 20
0.0
 30
0.0
  9
$PLIMCHECK
 70
     0
  9
$PEXTMIN
 10
1.00000000000000E+20
 20
1.00000000000000E+20
 30
1.00000000000000E+20
  9
$PEXTMAX
 10
-1.00000000000000E+20
 20
-1.00000000000000E+20
 30
-1.00000000000000E+20
  9
$PLIMMIN
 10
0.0
 20
0.0
  9
$PLIMMAX
 10
12.0
 20
9.0
  9
$UNITMODE
 70
     0
  9
$VISRETAIN
 70
     1
  9
$PLINEGEN
 70
     0
  9
$PSLTSCALE
 70
     1
  9
$TREEDEPTH
 70
  3020
  9
$CMLSTYLE
  2
Standard
  9
$CMLJUST
 70
     0
  9
$CMLSCALE
 40
1.0
  9
$PROXYGRAPHICS
 70
     1
  9
$MEASUREMENT
 70
     1
  9
$CELWEIGHT
370
    -1
  9
$ENDCAPS
280
     0
  9
$JOINSTYLE
280
     0
  9
$LWDISPLAY
290
     0
  9
$INSUNITS
 70
     4
  9
$HYPERLINKBASE
  1

  9
$STYLESHEET
  1

  9
$XEDIT
290
     1
  9
$CEPSNTYPE
380
     0
  9
$PSTYLEMODE
290
     1
  9
$FINGERPRINTGUID
  2
{BD656E7C-2C3C-4C59-A773-D4FA8C3A3828}
  9
$VERSIONGUID
  2
{FAEB1C32-E019-11D5-929B-00C0DF256EC4}
  9
$EXTNAMES
290
     1
  9
$PSVPSCALE
 40
0.0
  9
$OLESTARTUP
290
     0
  0
ENDSEC
  0
SECTION
  2
CLASSES
  0
CLASS
  1
ACDBDICTIONARYWDFLT
  2
AcDbDictionaryWithDefault
  3
ObjectDBX Classes
 90
        0
280
     0
281
     0
  0
CLASS
  1
VISUALSTYLE
  2
AcDbVisualStyle
  3
ObjectDBX Classes
 90
     4095
280
     0
281
     0
  0
CLASS
  1
MATERIAL
  2
AcDbMaterial
  3
ObjectDBX Classes
 90
     1153
280
     0
281
     0
  0
CLASS
  1
DICTIONARYVAR
  2
AcDbDictionaryVar
  3
ObjectDBX Classes
 90
        0
280
     0
281
     0
  0
CLASS
  1
ACDBPLACEHOLDER
  2
AcDbPlaceHolder
  3
ObjectDBX Classes
 90
        0
280
     0
281
     0
  0
CLASS
  1
LAYOUT
  2
AcDbLayout
  3
ObjectDBX Classes
 90
        0
280
     0
281
     0
  0
ENDSEC
  0
SECTION
  2
TABLES
  0
TABLE
  2
VPORT
  5
8
330
0
100
AcDbSymbolTable
 70
     1
  0
VPORT
  5
29
330
8
100
AcDbSymbolTableRecord
100
AcDbViewportTableRecord
  2
*Active
 70
     0
 10
0.0
 20
0.0
 11
1.0
 21
1.0
 12
-52.22706464275243
 22
74.25
 13
0.0
 23
0.0
 14
0.5
 24
0.5
 15
0.5
 25
0.5
 16
0.0
 26
0.0
 36
1.0
 17
0.0
 27
0.0
 37
0.0
 40
163.35
 41
1.60267857142857
 42
50.0
 43
0.0
 44
0.0
 50
0.0
 51
0.0
 71
     0
 72
   100
 73
     1
 74
     3
 75
     0
 76
     0
 77
     0
 78
     0
281
     0
 65
     1
110
0.0
120
0.0
130
0.0
111
1.0
121
0.0
131
0.0
112
0.0
122
1.0
132
0.0
 79
     0
146
0.0
  0
ENDTAB
  0
TABLE
  2
LTYPE
  5
5
330
0
100
AcDbSymbolTable
 70
     8
  0
LTYPE
  5
14
330
5
100
AcDbSymbolTableRecord
100
AcDbLinetypeTableRecord
  2
ByBlock
 70
     0
  3

 72
    65
 73
     0
 40
0.0
  0
LTYPE
  5
15
330
5
100
AcDbSymbolTableRecord
100
AcDbLinetypeTableRecord
  2
ByLayer
 70
     0
  3

 72
    65
 73
     0
 40
0.0
  0
LTYPE
  5
16
330
5
100
AcDbSymbolTableRecord
100
AcDbLinetypeTableRecord
  2
Continuous
 70
     0
  3
Solid line
 72
    65
 73
     0
 40
0.0
  0
LTYPE
  5
3F
330
5
100
AcDbSymbolTableRecord
100
AcDbLinetypeTableRecord
  2
DASHED
 70
     0
  3
Dashed
 72
    65
 73
     2
 40
15.0
 49
7.0
 74
     0
 49
-8.0
 74
     0
  0
LTYPE
  5
40
330
5
100
AcDbSymbolTableRecord
100
AcDbLinetypeTableRecord
  2
DOTTED
 70
     0
  3
Dotted
 72
    65
 73
     2
 40
1.0
 49
0.0
 74
     0
 49
-1.0
 74
     0
  0
LTYPE
  5
41
330
5
100
AcDbSymbolTableRecord
100
AcDbLinetypeTableRecord
  2
DOT_CENTER
 70
     0
  3
Dot_Center
 72
    65
 73
     4
 40
14.0
 49
12.0
 74
     0
 49
-1.0
 74
     0
 49
0.0
 74
     0
 49
-1.0
 74
     0
  0
LTYPE
  5
42
330
5
100
AcDbSymbolTableRecord
100
AcDbLinetypeTableRecord
  2
LONG_DASHED
 70
     0
  3
Long_Dashed
 72
    65
 73
     2
 40
15.0
 49
10.0
 74
     0
 49
-5.0
 74
     0
  0
LTYPE
  5
43
330
5
100
AcDbSymbolTableRecord
100
AcDbLinetypeTableRecord
  2
DASH_CENTER
 70
     0
  3
Dash_Center
 72
    65
 73
     4
 40
14.0
 49
11.0
 74
     0
 49
-1.0
 74
     0
 49
1.0
 74
     0
 49
-1.0
 74
     0
  0
LTYPE
  5
44
330
5
100
AcDbSymbolTableRecord
100
AcDbLinetypeTableRecord
  2
PHANTOM
 70
     0
  3
Phantom
 72
    65
 73
     6
 40
13.0
 49
10.0
 74
     0
 49
-1.0
 74
     0
 49
0.0
 74
     0
 49
-1.0
 74
     0
 49
0.0
 74
     0
 49
-1.0
 74
     0
  0
LTYPE
  5
45
330
5
100
AcDbSymbolTableRecord
100
AcDbLinetypeTableRecord
  2
CENTER_DASH_DASH
 70
     0
  3
Center_Dash_Dash
 72
    65
 73
     6
 40
14.0
 49
9.0
 74
     0
 49
-1.0
 74
     0
 49
1.0
 74
     0
 49
-1.0
 74
     0
 49
1.0
 74
     0
 49
-1.0
 74
     0
  0
ENDTAB
  0
TABLE
  2
LAYER
  5
2
330
0
100
AcDbSymbolTable
 70
     2
  0
LAYER
  5
10
330
2
100
AcDbSymbolTableRecord
100
AcDbLayerTableRecord
  2
0
 70
     0
 62
     7
  6
Continuous
370
    -3
390
F
  0
LAYER
  5
46
330
2
100
AcDbSymbolTableRecord
100
AcDbLayerTableRecord
  2
1
 70
     0
 62
     7
  6
Continuous
370
    -3
390
F
  0
ENDTAB
  0
TABLE
  2
STYLE
  5
3
330
0
100
AcDbSymbolTable
 70
     4
  0
STYLE
  5
11
330
3
100
AcDbSymbolTableRecord
100
AcDbTextStyleTableRecord
  2
Standard
 70
     0
 40
0.0
 41
1.0
 50
0.0
 71
     0
 42
0.2
  3
txt
  4

  0
STYLE
  5
9B
330
3
100
AcDbSymbolTableRecord
100
AcDbTextStyleTableRecord
  2
CONVERTER_11
 70
     0
 40
0.0
 41
1.2
 50
0.0
 71
     0
 42
0.2
  3
ARIAL.TTF
  4

  0
STYLE
  5
A0
330
3
100
AcDbSymbolTableRecord
100
AcDbTextStyleTableRecord
  2
CONVERTER_12
 70
     0
 40
0.0
 41
1.38
 50
0.0
 71
     0
 42
0.2
  3
ARIAL.TTF
  4

  0
STYLE
  5
16C
330
3
100
AcDbSymbolTableRecord
100
AcDbTextStyleTableRecord
  2
CONVERTER_13
 70
     0
 40
0.0
 41
0.95
 50
0.0
 71
     0
 42
0.2
  3
simplex.shx
  4

  0
ENDTAB
  0
TABLE
  2
VIEW
  5
6
330
0
100
AcDbSymbolTable
 70
     0
  0
ENDTAB
  0
TABLE
  2
UCS
  5
7
330
0
100
AcDbSymbolTable
 70
     0
  0
ENDTAB
  0
TABLE
  2
APPID
  5
9
330
0
100
AcDbSymbolTable
 70
     1
  0
APPID
  5
12
330
9
100
AcDbSymbolTableRecord
100
AcDbRegAppTableRecord
  2
ACAD
 70
     0
  0
ENDTAB
  0
TABLE
  2
DIMSTYLE
  5
A
330
0
100
AcDbSymbolTable
 70
     5
100
AcDbDimStyleTable
  0
DIMSTYLE
105
27
330
A
100
AcDbSymbolTableRecord
100
AcDbDimStyleTableRecord
  2
Standard
 70
     0
178
     0
340
11
  0
DIMSTYLE
105
177
102
{ACAD_REACTORS
330
178
102
}
330
A
100
AcDbSymbolTableRecord
100
AcDbDimStyleTableRecord
  2
ME10_DIM_10
 70
     0
 41
1.5
 42
0.25
 44
0.5
 73
     0
 74
     0
 77
     1
 78
     8
140
1.5
147
1.0
172
     1
173
     1
174
     1
175
     1
176
     2
177
     2
271
     2
178
     4
271
     2
340
16C
  0
DIMSTYLE
105
183
102
{ACAD_REACTORS
330
184
102
}
330
A
100
AcDbSymbolTableRecord
100
AcDbDimStyleTableRecord
  2
ME10_DIM_11
 70
     0
 41
1.5
 42
0.25
 44
0.5
 73
     0
 74
     0
 77
     1
 78
     8
140
1.5
147
1.0
172
     1
173
     1
174
     1
175
     1
176
     2
177
     2
271
     2
178
     4
271
     2
340
16C
  0
DIMSTYLE
105
18F
102
{ACAD_REACTORS
330
190
102
}
330
A
100
AcDbSymbolTableRecord
100
AcDbDimStyleTableRecord
  2
ME10_DIM_12
 70
     0
 41
1.5
 42
0.25
 44
0.5
 73
     0
 74
     0
 77
     1
 78
     8
140
1.5
147
1.0
172
     1
173
     1
174
     1
175
     1
176
     2
177
     2
271
     2
178
     4
271
     2
340
16C
  0
DIMSTYLE
105
19C
102
{ACAD_REACTORS
330
19D
102
}
330
A
100
AcDbSymbolTableRecord
100
AcDbDimStyleTableRecord
  2
ME10_DIM_13
 70
     0
  3
ø<>
 41
1.5
 42
0.25
 44
0.5
 73
     0
 74
     0
 77
     1
 78
     8
140
1.5
147
1.0
172
     1
173
     1
174
     1
175
     1
176
     2
177
     2
271
     2
178
     4
271
     2
340
16C
  0
ENDTAB
  0
TABLE
  2
BLOCK_RECORD
  5
1
330
0
100
AcDbSymbolTable
 70
     7
  0
BLOCK_RECORD
  5
1F
330
1
100
AcDbSymbolTableRecord
100
AcDbBlockTableRecord
  2
*Model_Space
340
22
  0
BLOCK_RECORD
  5
1B
330
1
100
AcDbSymbolTableRecord
100
AcDbBlockTableRecord
  2
*Paper_Space
340
1E
  0
BLOCK_RECORD
  5
23
330
1
100
AcDbSymbolTableRecord
100
AcDbBlockTableRecord
  2
*Paper_Space0
340
26
  0
BLOCK_RECORD
  5
47
330
1
100
AcDbSymbolTableRecord
100
AcDbBlockTableRecord
  2
_formato_A4
340
0
102
{BLKREFS
331
4B
102
}
  0
BLOCK_RECORD
  5
4A
330
1
100
AcDbSymbolTableRecord
100
AcDbBlockTableRecord
  2
A4
340
0
102
{BLKREFS
331
4E
102
}
  0
BLOCK_RECORD
  5
16E
330
1
100
AcDbSymbolTableRecord
100
AcDbBlockTableRecord
  2
*D3
340
0
  0
BLOCK_RECORD
  5
179
330
1
100
AcDbSymbolTableRecord
100
AcDbBlockTableRecord
  2
*D4
340
0
  0
BLOCK_RECORD
  5
185
330
1
100
AcDbSymbolTableRecord
100
AcDbBlockTableRecord
  2
*D5
340
0
  0
BLOCK_RECORD
  5
191
330
1
100
AcDbSymbolTableRecord
100
AcDbBlockTableRecord
  2
*D6
340
0
  0
ENDTAB
  0
ENDSEC
  0
SECTION
  2
BLOCKS
  0
BLOCK
  5
20
330
1F
100
AcDbEntity
  8
0
100
AcDbBlockBegin
  2
*Model_Space
 70
     0
 10
0.0
 20
0.0
 30
0.0
  3
*Model_Space
  1

  0
ENDBLK
  5
21
330
1F
100
AcDbEntity
  8
0
100
AcDbBlockEnd
  0
BLOCK
  5
1C
330
1B
100
AcDbEntity
 67
     1
  8
0
100
AcDbBlockBegin
  2
*Paper_Space
 70
     0
 10
0.0
 20
0.0
 30
0.0
  3
*Paper_Space
  1

  0
ENDBLK
  5
1D
330
1B
100
AcDbEntity
 67
     1
  8
0
100
AcDbBlockEnd
  0
BLOCK
  5
24
330
23
100
AcDbEntity
  8
0
100
AcDbBlockBegin
  2
*Paper_Space0
 70
     0
 10
0.0
 20
0.0
 30
0.0
  3
*Paper_Space0
  1

  0
ENDBLK
  5
25
330
23
100
AcDbEntity
  8
0
100
AcDbBlockEnd
  0
BLOCK
  5
48
330
47
100
AcDbEntity
  8
0
100
AcDbBlockBegin
  2
_formato_A4
 70
     0
 10
0.54587071449527
 20
0.0
 30
0.0
  3
_formato_A4
  1

  0
LINE
  5
4F
330
47
100
AcDbEntity
  8
1
  6
Continuous
 62
     7
100
AcDbLine
 10
-188.4541292855047
 20
20.0
 30
0.0
 11
-4.45412928550473
 21
20.0
 31
0.0
  0
LINE
  5
50
330
47
100
AcDbEntity
  8
1
  6
Continuous
 62
     7
100
AcDbLine
 10
-188.4541292855047
 20
4.99999999999989
 30
0.0
 11
-4.45412928550473
 21
4.99999999999989
 31
0.0
  0
LINE
  5
51
330
47
100
AcDbEntity
  8
1
  6
Continuous
 62
     7
100
AcDbLine
 10
-163.4541292855047
 20
35.0
 30
0.0
 11
-163.4541292855047
 21
40.0
 31
0.0
  0
LINE
  5
52
330
47
100
AcDbEntity
  8
1
  6
Continuous
 62
     7
100
AcDbLine
 10
-181.4541292855047
 20
35.0
 30
0.0
 11
-181.4541292855047
 21
40.0
 31
0.0
  0
LINE
  5
53
330
47
100
AcDbEntity
  8
1
  6
Continuous
 62
     7
100
AcDbLine
 10
-188.4541292855047
 20
40.0
 30
0.0
 11
-4.45412928550473
 21
40.0
 31
0.0
  0
LINE
  5
54
330
47
100
AcDbEntity
  8
1
  6
Continuous
 62
     7
100
AcDbLine
 10
-163.4541292855047
 20
30.0
 30
0.0
 11
-163.4541292855047
 21
35.0
 31
0.0
  0
LINE
  5
55
330
47
100
AcDbEntity
  8
1
  6
Continuous
 62
     7
100
AcDbLine
 10
-181.4541292855047
 20
30.0
 30
0.0
 11
-181.4541292855047
 21
35.0
 31
0.0
  0
LINE
  5
56
330
47
100
AcDbEntity
  8
1
  6
Continuous
 62
     7
100
AcDbLine
 10
-188.4541292855047
 20
35.0
 30
0.0
 11
-4.45412928550473
 21
35.0
 31
0.0
  0
LINE
  5
57
330
47
100
AcDbEntity
  8
1
  6
Continuous
 62
     7
100
AcDbLine
 10
-163.4541292855047
 20
25.0
 30
0.0
 11
-163.4541292855047
 21
30.0
 31
0.0
  0
LINE
  5
58
330
47
100
AcDbEntity
  8
1
  6
Continuous
 62
     7
100
AcDbLine
 10
-181.4541292855047
 20
25.0
 30
0.0
 11
-181.4541292855047
 21
30.0
 31
0.0
  0
LINE
  5
59
330
47
100
AcDbEntity
  8
1
  6
Continuous
 62
     7
100
AcDbLine
 10
-188.4541292855047
 20
30.0
 30
0.0
 11
-4.45412928550473
 21
30.0
 31
0.0
  0
LINE
  5
5A
330
47
100
AcDbEntity
  8
1
  6
Continuous
 62
     7
100
AcDbLine
 10
-163.4541292855047
 20
20.0
 30
0.0
 11
-163.4541292855047
 21
25.0
 31
0.0
  0
LINE
  5
5B
330
47
100
AcDbEntity
  8
1
  6
Continuous
 62
     7
100
AcDbLine
 10
-181.4541292855047
 20
20.0
 30
0.0
 11
-181.4541292855047
 21
25.0
 31
0.0
  0
LINE
  5
5C
330
47
100
AcDbEntity
  8
1
  6
Continuous
 62
     7
100
AcDbLine
 10
-188.4541292855047
 20
25.0
 30
0.0
 11
-4.45412928550473
 21
25.0
 31
0.0
  0
LINE
  5
5D
102
{ACAD_REACTORS
330
A2
102
}
330
47
100
AcDbEntity
  8
1
  6
Continuous
 62
     7
100
AcDbLine
 10
-13.61125444559895
 20
10.55800208038033
 30
0.0
 11
-14.9445877789322
 21
9.78877131114973
 31
0.0
  0
LINE
  5
5E
102
{ACAD_REACTORS
330
A2
102
}
330
47
100
AcDbEntity
  8
1
  6
Continuous
 62
     7
100
AcDbLine
 10
-14.77782859676205
 20
10.65463653264794
 30
0.0
 11
-13.94440274792538
 21
11.13545913774624
 31
0.0
  0
LINE
  5
5F
102
{ACAD_REACTORS
330
A2
102
}
330
47
100
AcDbEntity
  8
1
  6
Continuous
 62
     7
100
AcDbLine
 10
-14.77782859676205
 20
12.16666666666663
 30
0.0
 11
-14.77782859676205
 21
10.65463653264794
 31
0.0
  0
LINE
  5
60
102
{ACAD_REACTORS
330
A2
102
}
330
47
100
AcDbEntity
  8
1
  6
Continuous
 62
     7
100
AcDbLine
 10
-13.77782859676205
 20
12.16666666666663
 30
0.0
 11
-14.77782859676205
 21
12.16666666666663
 31
0.0
  0
LINE
  5
61
102
{ACAD_REACTORS
330
A2
102
}
330
47
100
AcDbEntity
  8
1
  6
Continuous
 62
     7
100
AcDbLine
 10
-14.77782859676205
 20
12.83333333333326
 30
0.0
 11
-13.77782859676205
 21
12.83333333333326
 31
0.0
  0
LINE
  5
62
102
{ACAD_REACTORS
330
A2
102
}
330
47
100
AcDbEntity
  8
1
  6
Continuous
 62
     7
100
AcDbLine
 10
-14.77782859676205
 20
14.34536346735195
 30
0.0
 11
-14.77782859676205
 21
12.83333333333326
 31
0.0
  0
LINE
  5
63
102
{ACAD_REACTORS
330
A2
102
}
330
47
100
AcDbEntity
  8
1
  6
Continuous
 62
     7
100
AcDbLine
 10
-13.94440274792538
 20
13.86454086225376
 30
0.0
 11
-14.77782859676205
 21
14.34536346735195
 31
0.0
  0
LINE
  5
64
102
{ACAD_REACTORS
330
A2
102
}
330
47
100
AcDbEntity
  8
1
  6
Continuous
 62
     7
100
AcDbLine
 10
-14.9445877789322
 20
15.21122868885027
 30
0.0
 11
-13.61125444559895
 21
14.44199791961944
 31
0.0
  0
LINE
  5
65
102
{ACAD_REACTORS
330
A3
102
}
330
47
100
AcDbEntity
  8
1
  6
Continuous
 62
     7
100
AcDbLine
 10
-22.11116193009553
 20
10.84673060906323
 30
0.0
 11
-22.11116193009553
 21
14.15326939093666
 31
0.0
  0
LINE
  5
66
102
{ACAD_REACTORS
330
A3
102
}
330
47
100
AcDbEntity
  8
1
  6
Continuous
 62
     7
100
AcDbLine
 10
-21.4444952634288
 20
11.0392519172633
 30
0.0
 11
-21.4444952634288
 21
10.84673060906323
 31
0.0
  0
LINE
  5
67
102
{ACAD_REACTORS
330
A3
102
}
330
47
100
AcDbEntity
  8
1
  6
Continuous
 62
     7
100
AcDbLine
 10
-21.4444952634288
 20
14.15326939093666
 30
0.0
 11
-21.4444952634288
 21
11.0392519172633
 31
0.0
  0
LINE
  5
68
102
{ACAD_REACTORS
330
A4
102
}
330
47
100
AcDbEntity
  8
1
  6
Continuous
 62
     7
100
AcDbLine
 10
-18.27773608125863
 20
8.44261746499581
 30
0.0
 11
-20.44431023242175
 21
9.69256409066691
 31
0.0
  0
LINE
  5
69
102
{ACAD_REACTORS
330
A4
102
}
330
47
100
AcDbEntity
  8
1
  6
Continuous
 62
     7
100
AcDbLine
 10
-20.11116193009553
 20
10.2700211480327
 30
0.0
 11
-17.94458777893221
 21
9.0200745223616
 31
0.0
  0
LINE
  5
6A
102
{ACAD_REACTORS
330
A4
102
}
330
47
100
AcDbEntity
  8
1
  6
Continuous
 62
     7
100
AcDbLine
 10
-20.11116193009553
 20
14.92250016016737
 30
0.0
 11
-20.11116193009553
 21
10.2700211480327
 31
0.0
  0
LINE
  5
6B
102
{ACAD_REACTORS
330
A4
102
}
330
47
100
AcDbEntity
  8
1
  6
Continuous
 62
     7
100
AcDbLine
 10
-20.77782859676206
 20
10.27002114803258
 30
0.0
 11
-20.77782859676206
 21
14.92250016016737
 31
0.0
  0
LINE
  5
6C
102
{ACAD_REACTORS
330
A5
102
}
330
47
100
AcDbEntity
  8
1
  6
Continuous
 62
     7
100
AcDbLine
 10
-16.60559561371889
 20
15.86370041827229
 30
0.0
 11
-17.77782859676206
 21
13.83333333333326
 31
0.0
  0
LINE
  5
6D
102
{ACAD_REACTORS
330
A5
102
}
330
47
100
AcDbEntity
  8
1
  6
Continuous
 62
     7
100
AcDbLine
 10
-16.11116193009553
 20
9.3082690706018
 30
0.0
 11
-16.11116193009553
 21
15.73121731203457
 31
0.0
  0
LINE
  5
6E
102
{ACAD_REACTORS
330
A5
102
}
330
47
100
AcDbEntity
  8
1
  6
Continuous
 62
     7
100
AcDbLine
 10
-16.77782859676206
 20
12.5
 30
0.0
 11
-16.77782859676206
 21
9.3082690706018
 31
0.0
  0
LINE
  5
6F
102
{ACAD_REACTORS
330
A5
102
}
330
47
100
AcDbEntity
  8
1
  6
Continuous
 62
     7
100
AcDbLine
 10
-18.77782859676206
 20
10.84758507263291
 30
0.0
 11
-18.77782859676206
 21
12.5
 31
0.0
  0
LINE
  5
70
102
{ACAD_REACTORS
330
A5
102
}
330
47
100
AcDbEntity
  8
1
  6
Continuous
 62
     7
100
AcDbLine
 10
-19.4444952634288
 20
12.5
 30
0.0
 11
-19.4444952634288
 21
10.84758507263291
 31
0.0
  0
LINE
  5
71
102
{ACAD_REACTORS
330
A5
102
}
330
47
100
AcDbEntity
  8
1
  6
Continuous
 62
     7
100
AcDbLine
 10
-18.95006157980544
 20
15.86370041827229
 30
0.0
 11
-17.77782859676206
 21
13.83333333333326
 31
0.0
  0
LINE
  5
72
102
{ACAD_REACTORS
330
A5
102
}
330
47
100
AcDbEntity
  8
1
  6
Continuous
 62
     7
100
AcDbLine
 10
-19.4444952634288
 20
12.5
 30
0.0
 11
-19.4444952634288
 21
15.73121731203457
 31
0.0
  0
LINE
  5
73
330
47
100
AcDbEntity
  8
1
  6
Continuous
 62
     7
100
AcDbLine
 10
-17.77782859676206
 20
7.5
 30
0.0
 11
-26.19426387190362
 21
12.35563573565855
 31
0.0
  0
LINE
  5
74
330
47
100
AcDbEntity
  8
1
  6
Continuous
 62
     7
100
AcDbLine
 10
-9.36139332162071
 20
12.35563573565855
 30
0.0
 11
-17.77782859676206
 21
7.5
 31
0.0
  0
LINE
  5
75
330
47
100
AcDbEntity
  8
1
  6
Continuous
 62
     7
100
AcDbLine
 10
-17.77782859676206
 20
17.5
 30
0.0
 11
-9.36139332162071
 21
12.64436426434133
 31
0.0
  0
LINE
  5
76
330
47
100
AcDbEntity
  8
1
  6
Continuous
 62
     7
100
AcDbLine
 10
-26.19426387190362
 20
12.64436426434133
 30
0.0
 11
-17.77782859676206
 21
17.5
 31
0.0
  0
LINE
  5
77
102
{ACAD_REACTORS
330
A5
102
}
330
47
100
AcDbEntity
  8
1
  6
Continuous
 62
     7
100
AcDbLine
 10
-18.77782859676206
 20
14.23205080756884
 30
0.0
 11
-18.77782859676206
 21
12.5
 31
0.0
  0
LINE
  5
78
102
{ACAD_REACTORS
330
A5
102
}
330
47
100
AcDbEntity
  8
1
  6
Continuous
 62
     7
100
AcDbLine
 10
-17.92216616405954
 20
12.75
 30
0.0
 11
-18.77782859676206
 21
14.23205080756884
 31
0.0
  0
LINE
  5
79
102
{ACAD_REACTORS
330
A5
102
}
330
47
100
AcDbEntity
  8
1
  6
Continuous
 62
     7
100
AcDbLine
 10
-16.77782859676206
 20
14.23205080756884
 30
0.0
 11
-17.63349102946478
 21
12.75
 31
0.0
  0
LINE
  5
7A
102
{ACAD_REACTORS
330
A5
102
}
330
47
100
AcDbEntity
  8
1
  6
Continuous
 62
     7
100
AcDbLine
 10
-16.77782859676206
 20
12.5
 30
0.0
 11
-16.77782859676206
 21
14.23205080756884
 31
0.0
  0
LINE
  5
7B
102
{ACAD_REACTORS
330
A2
102
}
330
47
100
AcDbEntity
  8
1
  6
Continuous
 62
     7
100
AcDbLine
 10
-15.4444952634288
 20
10.07749983983263
 30
0.0
 11
-15.4444952634288
 21
14.92250016016737
 31
0.0
  0
LINE
  5
7C
330
47
100
AcDbEntity
  8
1
  6
Continuous
 62
     7
100
AcDbLine
 10
-188.4541292855047
 20
292.0
 30
0.0
 11
-188.4541292855047
 21
4.99999999999989
 31
0.0
  0
LINE
  5
7D
330
47
100
AcDbEntity
  8
1
  6
Continuous
 62
     7
100
AcDbLine
 10
-4.45412928550473
 20
292.0
 30
0.0
 11
-188.4541292855047
 21
292.0
 31
0.0
  0
LINE
  5
7E
330
47
100
AcDbEntity
  8
1
  6
Continuous
 62
     7
100
AcDbLine
 10
-4.45412928550473
 20
4.99999999999989
 30
0.0
 11
-4.45412928550473
 21
292.0
 31
0.0
  0
LINE
  5
7F
330
47
100
AcDbEntity
  8
1
  6
Continuous
 62
     7
100
AcDbLine
 10
0.54587071449527
 20
297.0
 30
0.0
 11
-209.4541292855049
 21
297.0
 31
0.0
  0
LINE
  5
80
330
47
100
AcDbEntity
  8
1
  6
Continuous
 62
     7
100
AcDbLine
 10
-209.4541292855049
 20
297.0
 30
0.0
 11
-209.4541292855049
 21
0.0
 31
0.0
  0
LINE
  5
81
330
47
100
AcDbEntity
  8
1
  6
Continuous
 62
     7
100
AcDbLine
 10
-209.4541292855049
 20
0.0
 30
0.0
 11
0.54587071449527
 21
0.0
 31
0.0
  0
LINE
  5
82
330
47
100
AcDbEntity
  8
1
  6
Continuous
 62
     7
100
AcDbLine
 10
0.54587071449527
 20
0.0
 30
0.0
 11
0.54587071449527
 21
297.0
 31
0.0
  0
LINE
  5
83
330
47
100
AcDbEntity
  8
1
  6
Continuous
 62
     7
100
AcDbLine
 10
-209.4541292855049
 20
148.4999999999998
 30
0.0
 11
-194.4541292855049
 21
148.4999999999998
 31
0.0
  0
LINE
  5
84
330
47
100
AcDbEntity
  8
1
  6
Continuous
 62
     7
100
AcDbLine
 10
-188.4541292855047
 20
9.99999999999983
 30
0.0
 11
-158.4541292855047
 21
9.99999999999983
 31
0.0
  0
LINE
  5
85
330
47
100
AcDbEntity
  8
1
  6
Continuous
 62
     7
100
AcDbLine
 10
-158.4541292855047
 20
20.0
 30
0.0
 11
-158.4541292855047
 21
5.0
 31
0.0
  0
LINE
  5
86
330
47
100
AcDbEntity
  8
1
  6
Continuous
 62
     7
100
AcDbLine
 10
-31.10152790801936
 20
20.0
 30
0.0
 11
-31.10152790801936
 21
5.0
 31
0.0
  0
LINE
  5
87
330
47
100
AcDbEntity
  8
1
  6
Continuous
 62
     7
100
AcDbLine
 10
-48.45412928550474
 20
20.0
 30
0.0
 11
-48.45412928550474
 21
5.0
 31
0.0
  0
LINE
  5
88
330
47
100
AcDbEntity
  8
1
  6
Continuous
 62
     7
100
AcDbLine
 10
-188.4541292855047
 20
20.0
 30
0.0
 11
-188.4541292855047
 21
4.99999999999989
 31
0.0
  0
LINE
  5
89
330
47
100
AcDbEntity
  8
1
  6
Continuous
 62
     7
100
AcDbLine
 10
-188.4541292855047
 20
14.99999999999989
 30
0.0
 11
-158.4541292855047
 21
14.99999999999989
 31
0.0
  0
ARC
  5
8A
102
{ACAD_REACTORS
330
A2
102
}
330
47
100
AcDbEntity
  8
1
  6
Continuous
 62
     7
100
AcDbCircle
 10
-13.77782859676205
 20
10.84673060906323
 30
0.0
 40
0.3333333333333154
100
AcDbArc
 50
299.9816393688329
 51
119.9816393688574
  0
ARC
  5
8B
102
{ACAD_REACTORS
330
A2
102
}
330
47
100
AcDbEntity
  8
1
  6
Continuous
 62
     7
100
AcDbCircle
 10
-13.77782859676205
 20
12.5
 30
0.0
 40
0.3333333333333695
100
AcDbArc
 50
270.0
 51
90.0
  0
ARC
  5
8C
102
{ACAD_REACTORS
330
A2
102
}
330
47
100
AcDbEntity
  8
1
  6
Continuous
 62
     7
100
AcDbCircle
 10
-13.77782859676205
 20
14.15326939093666
 30
0.0
 40
0.3333333333334314
100
AcDbArc
 50
240.0183606311331
 51
60.0183606311569
  0
ARC
  5
8D
102
{ACAD_REACTORS
330
A3
102
}
330
47
100
AcDbEntity
  8
1
  6
Continuous
 62
     7
100
AcDbCircle
 10
-21.77782859676206
 20
10.84673060906323
 30
0.0
 40
0.3333333333334707
100
AcDbArc
 50
180.0
 51
0.0
  0
ARC
  5
8E
102
{ACAD_REACTORS
330
A3
102
}
330
47
100
AcDbEntity
  8
1
  6
Continuous
 62
     7
100
AcDbCircle
 10
-21.77782859676206
 20
14.15326939093666
 30
0.0
 40
0.3333333333332611
100
AcDbArc
 50
0.0
 51
180.0
  0
ARC
  5
8F
102
{ACAD_REACTORS
330
A4
102
}
330
47
100
AcDbEntity
  8
1
  6
Continuous
 62
     7
100
AcDbCircle
 10
-18.11116193009553
 20
8.7313459936787
 30
0.0
 40
0.3333333333333123
100
AcDbArc
 50
240.0183606311668
 51
60.01836063113403
  0
ARC
  5
90
102
{ACAD_REACTORS
330
A4
102
}
330
47
100
AcDbEntity
  8
1
  6
Continuous
 62
     7
100
AcDbCircle
 10
-20.4444952634288
 20
14.92250016016737
 30
0.0
 40
0.3333333333332682
100
AcDbArc
 50
0.0
 51
180.0
  0
ARC
  5
91
102
{ACAD_REACTORS
330
A5
102
}
330
47
100
AcDbEntity
  8
1
  6
Continuous
 62
     7
100
AcDbCircle
 10
-16.37612814257074
 20
15.73121731203457
 30
0.0
 40
0.2649662124752084
100
AcDbArc
 50
0.0
 51
149.9999999999866
  0
ARC
  5
92
102
{ACAD_REACTORS
330
A5
102
}
330
47
100
AcDbEntity
  8
1
  6
Continuous
 62
     7
100
AcDbCircle
 10
-16.4444952634288
 20
9.3082690706018
 30
0.0
 40
0.3333333333332611
100
AcDbArc
 50
180.0
 51
0.0
  0
ARC
  5
93
102
{ACAD_REACTORS
330
A5
102
}
330
47
100
AcDbEntity
  8
1
  6
Continuous
 62
     7
100
AcDbCircle
 10
-19.11116193009553
 20
10.84758507263291
 30
0.0
 40
0.3333333333332682
100
AcDbArc
 50
180.0
 51
0.0
  0
ARC
  5
94
102
{ACAD_REACTORS
330
A5
102
}
330
47
100
AcDbEntity
  8
1
  6
Continuous
 62
     7
100
AcDbCircle
 10
-19.17952905095359
 20
15.73121731203457
 30
0.0
 40
0.2649662124753315
100
AcDbArc
 50
30.00000000001345
 51
180.0
  0
ARC
  5
95
102
{ACAD_REACTORS
330
A2
102
}
330
47
100
AcDbEntity
  8
1
  6
Continuous
 62
     7
100
AcDbCircle
 10
-15.11116193009553
 20
10.07749983983263
 30
0.0
 40
0.33333333333327
100
AcDbArc
 50
180.0
 51
299.981639368867
  0
ARC
  5
96
102
{ACAD_REACTORS
330
A2
102
}
330
47
100
AcDbEntity
  8
1
  6
Continuous
 62
     7
100
AcDbCircle
 10
-15.11116193009553
 20
14.92250016016737
 30
0.0
 40
0.3333333333334299
100
AcDbArc
 50
60.01836063113301
 51
180.0
  0
ARC
  5
97
330
47
100
AcDbEntity
  8
1
  6
Continuous
 62
     7
100
AcDbCircle
 10
-9.44468039720215
 20
12.5
 30
0.0
 40
0.1666666666666018
100
AcDbArc
 50
299.9816393687996
 51
60.01836063118
  0
ARC
  5
98
330
47
100
AcDbEntity
  8
1
  6
Continuous
 62
     7
100
AcDbCircle
 10
-26.11097679632195
 20
12.5
 30
0.0
 40
0.1666666666666141
100
AcDbArc
 50
119.9816393688888
 51
240.0183606311317
  0
ARC
  5
99
102
{ACAD_REACTORS
330
A4
102
}
330
47
100
AcDbEntity
  8
1
  6
Continuous
 62
     7
100
AcDbCircle
 10
-20.11116193009553
 20
10.2700211480327
 30
0.0
 40
0.6666666666665293
100
AcDbArc
 50
180.0000000000104
 51
240.0183606311656
  0
ARC
  5
9A
102
{ACAD_REACTORS
330
A5
102
}
330
47
100
AcDbEntity
  8
1
  6
Continuous
 62
     7
100
AcDbCircle
 10
-17.77782859676206
 20
12.83333333333326
 30
0.0
 40
0.1666666666666936
100
AcDbArc
 50
209.9999999999652
 51
330.0000000000006
  0
MTEXT
  5
9C
330
47
100
AcDbEntity
  8
1
 62
     7
100
AcDbMText
 10
-39.77782859676206
 20
16.26063942075598
 30
0.0
 40
3.0
 41
0.0
 71
     5
 72
     1
  1
Scale
  7
CONVERTER_11
 73
     1
 44
1.32052821128451
  0
MTEXT
  5
9D
330
47
100
AcDbEntity
  8
1
 62
     7
100
AcDbMText
 10
-187.4541292855047
 20
7.49999999999989
 30
0.0
 40
3.0
 41
0.0
 71
     4
 72
     1
  1
Sign.
  7
CONVERTER_11
 73
     1
 44
1.32052821128451
  0
MTEXT
  5
9E
330
47
100
AcDbEntity
  8
1
 62
     7
100
AcDbMText
 10
-187.4541292855047
 20
12.49999999999989
 30
0.0
 40
3.0
 41
0.0
 71
     4
 72
     1
  1
Date
  7
CONVERTER_11
 73
     1
 44
1.32052821128451
  0
MTEXT
  5
9F
330
47
100
AcDbEntity
  8
1
 62
     7
100
AcDbMText
 10
-193.4541292855049
 20
151.4999999999998
 30
0.0
 40
4.0
 41
0.0
 71
     5
 72
     1
  1
Diritti riservati      All rights reserved
  7
CONVERTER_11
 11
0.0
 21
1.0
 31
0.0
 73
     1
 44
1.32052821128451
  0
MTEXT
  5
A1
330
47
100
AcDbEntity
  8
1
 62
     7
100
AcDbMText
 10
-173.4541292855047
 20
17.49999999999994
 30
0.0
 40
2.5
 41
0.0
 71
     5
 72
     1
  1
dimensions in mm
  7
CONVERTER_12
 73
     1
 44
0.60024009603842
  0
HATCH
  5
A2
330
47
100
AcDbEntity
  8
1
  6
Continuous
 62
     7
100
AcDbHatch
 10
0.0
 20
0.0
 30
0.0
210
0.0
220
0.0
230
1.0
  2
SOLID
 70
     1
 71
     1
 91
        1
 92
        1
 93
       14
 72
     2
 10
-15.11116193009553
 20
14.92250016016737
 40
0.3333333333334299
 50
60.01836063113301
 51
180.0
 73
     1
 72
     1
 10
-15.4444952634288
 20
14.92250016016737
 11
-15.4444952634288
 21
10.07749983983263
 72
     2
 10
-15.11116193009553
 20
10.07749983983263
 40
0.33333333333327
 50
180.0
 51
299.981639368867
 73
     1
 72
     1
 10
-14.9445877789322
 20
9.78877131114973
 11
-13.61125444559895
 21
10.55800208038033
 72
     2
 10
-13.77782859676205
 20
10.84673060906323
 40
0.3333333333333154
 50
299.9816393688329
 51
479.9816393688574
 73
     1
 72
     1
 10
-13.94440274792538
 20
11.13545913774624
 11
-14.77782859676205
 21
10.65463653264794
 72
     1
 10
-14.77782859676205
 20
10.65463653264794
 11
-14.77782859676205
 21
12.16666666666663
 72
     1
 10
-14.77782859676205
 20
12.16666666666663
 11
-13.77782859676205
 21
12.16666666666663
 72
     2
 10
-13.77782859676205
 20
12.5
 40
0.3333333333333695
 50
270.0
 51
450.0
 73
     1
 72
     1
 10
-13.77782859676205
 20
12.83333333333326
 11
-14.77782859676205
 21
12.83333333333326
 72
     1
 10
-14.77782859676205
 20
12.83333333333326
 11
-14.77782859676205
 21
14.34536346735195
 72
     1
 10
-14.77782859676205
 20
14.34536346735195
 11
-13.94440274792538
 21
13.86454086225376
 72
     2
 10
-13.77782859676205
 20
14.15326939093666
 40
0.3333333333334314
 50
240.0183606311331
 51
420.0183606311569
 73
     1
 72
     1
 10
-13.61125444559895
 20
14.44199791961944
 11
-14.9445877789322
 21
15.21122868885027
 97
       14
330
8C
330
63
330
62
330
61
330
8B
330
60
330
5F
330
5E
330
8A
330
5D
330
95
330
7B
330
96
330
64
 75
     0
 76
     1
 98
        1
 10
0.0
 20
0.0
  0
HATCH
  5
A3
330
47
100
AcDbEntity
  8
1
  6
Continuous
 62
     7
100
AcDbHatch
 10
0.0
 20
0.0
 30
0.0
210
0.0
220
0.0
230
1.0
  2
SOLID
 70
     1
 71
     1
 91
        1
 92
        1
 93
        5
 72
     2
 10
-21.77782859676206
 20
14.15326939093666
 40
0.3333333333332611
 50
0.0
 51
180.0
 73
     1
 72
     1
 10
-22.11116193009553
 20
14.15326939093666
 11
-22.11116193009553
 21
10.84673060906323
 72
     2
 10
-21.77782859676206
 20
10.84673060906323
 40
0.3333333333334707
 50
180.0
 51
360.0
 73
     1
 72
     1
 10
-21.4444952634288
 20
10.84673060906323
 11
-21.4444952634288
 21
11.0392519172633
 72
     1
 10
-21.4444952634288
 20
11.0392519172633
 11
-21.4444952634288
 21
14.15326939093666
 97
        5
330
8E
330
65
330
8D
330
66
330
67
 75
     0
 76
     1
 98
        1
 10
0.0
 20
0.0
  0
HATCH
  5
A4
330
47
100
AcDbEntity
  8
1
  6
Continuous
 62
     7
100
AcDbHatch
 10
0.0
 20
0.0
 30
0.0
210
0.0
220
0.0
230
1.0
  2
SOLID
 70
     1
 71
     1
 91
        1
 92
        1
 93
        7
 72
     2
 10
-20.4444952634288
 20
14.92250016016737
 40
0.3333333333332682
 50
0.0
 51
180.0
 73
     1
 72
     1
 10
-20.77782859676206
 20
14.92250016016737
 11
-20.77782859676206
 21
10.27002114803258
 72
     2
 10
-20.11116193009553
 20
10.2700211480327
 40
0.6666666666665293
 50
180.0000000000104
 51
240.0183606311656
 73
     1
 72
     1
 10
-20.44431023242175
 20
9.692564090666906
 11
-18.27773608125863
 21
8.442617464995806
 72
     2
 10
-18.11116193009553
 20
8.731345993678701
 40
0.3333333333333123
 50
240.0183606311668
 51
420.018360631134
 73
     1
 72
     1
 10
-17.94458777893221
 20
9.020074522361597
 11
-20.11116193009553
 21
10.2700211480327
 72
     1
 10
-20.11116193009553
 20
10.2700211480327
 11
-20.11116193009553
 21
14.92250016016737
 97
        7
330
90
330
6B
330
99
330
68
330
8F
330
69
330
6A
 75
     0
 76
     1
 98
        1
 10
0.0
 20
0.0
  0
HATCH
  5
A5
330
47
100
AcDbEntity
  8
1
  6
Continuous
 62
     7
100
AcDbHatch
 10
0.0
 20
0.0
 30
0.0
210
0.0
220
0.0
230
1.0
  2
SOLID
 70
     1
 71
     1
 91
        1
 92
        1
 93
       16
 72
     2
 10
-16.37612814257074
 20
15.73121731203457
 40
0.2649662124752084
 50
210.0000000000134
 51
360.0
 73
     0
 72
     1
 10
-16.11116193009553
 20
15.73121731203457
 11
-16.11116193009553
 21
9.308269070601796
 72
     2
 10
-16.4444952634288
 20
9.308269070601796
 40
0.3333333333332611
 50
0.0
 51
180.0
 73
     0
 72
     1
 10
-16.77782859676206
 20
9.308269070601796
 11
-16.77782859676206
 21
12.5
 72
     1
 10
-16.77782859676206
 20
12.5
 11
-16.77782859676206
 21
14.23205080756884
 72
     1
 10
-16.77782859676206
 20
14.23205080756884
 11
-17.63349102946478
 21
12.75
 72
     2
 10
-17.77782859676206
 20
12.83333333333326
 40
0.1666666666666936
 50
29.99999999999946
 51
150.0000000000347
 73
     0
 72
     1
 10
-17.92216616405954
 20
12.75
 11
-18.77782859676206
 21
14.23205080756884
 72
     1
 10
-18.77782859676206
 20
14.23205080756884
 11
-18.77782859676206
 21
12.5
 72
     1
 10
-18.77782859676206
 20
12.5
 11
-18.77782859676206
 21
10.84758507263291
 72
     2
 10
-19.11116193009553
 20
10.84758507263291
 40
0.3333333333332682
 50
0.0
 51
180.0
 73
     0
 72
     1
 10
-19.4444952634288
 20
10.84758507263291
 11
-19.4444952634288
 21
12.5
 72
     1
 10
-19.4444952634288
 20
12.5
 11
-19.4444952634288
 21
15.73121731203457
 72
     2
 10
-19.17952905095359
 20
15.73121731203457
 40
0.2649662124753315
 50
180.0
 51
329.9999999999866
 73
     0
 72
     1
 10
-18.95006157980544
 20
15.86370041827229
 11
-17.77782859676206
 21
13.83333333333326
 72
     1
 10
-17.77782859676206
 20
13.83333333333326
 11
-16.60559561371889
 21
15.86370041827229
 97
       16
330
71
330
94
330
72
330
70
330
93
330
6F
330
77
330
78
330
9A
330
79
330
7A
330
6E
330
92
330
6D
330
91
330
6C
 75
     0
 76
     1
 98
        1
 10
0.0
 20
0.0
  0
ENDBLK
  5
49
330
47
100
AcDbEntity
  8
0
100
AcDbBlockEnd
  0
BLOCK
  5
4C
330
4A
100
AcDbEntity
  8
0
100
AcDbBlockBegin
  2
A4
 70
     0
 10
0.27293535724763
 20
0.0
 30
0.0
  3
A4
  1

  0
INSERT
  5
4B
330
4A
100
AcDbEntity
  8
1
100
AcDbBlockReference
  2
_formato_A4
 10
0.27293535724763
 20
0.0
 30
0.0
 41
0.5
 42
0.5
 43
0.5
  0
ENDBLK
  5
4D
330
4A
100
AcDbEntity
  8
0
100
AcDbBlockEnd
  0
BLOCK
  5
175
330
16E
100
AcDbEntity
  8
0
100
AcDbBlockBegin
  2
*D3
 70
     1
 10
0.0
 20
0.0
 30
0.0
  3
*D3
  1

  0
LINE
  5
16F
330
16E
100
AcDbEntity
  8
1
  6
Continuous
 62
     2
100
AcDbLine
 10
-60.3422390187237
 20
90.26616505818377
 30
0.0
 11
-60.3422390187237
 21
72.96616505818388
 31
0.0
  0
LINE
  5
170
330
16E
100
AcDbEntity
  8
1
  6
Continuous
 62
     2
100
AcDbLine
 10
-51.82706464275235
 20
90.26616505818377
 30
0.0
 11
-60.8422390187237
 21
90.26616505818377
 31
0.0
  0
LINE
  5
171
330
16E
100
AcDbEntity
  8
1
  6
Continuous
 62
     2
100
AcDbLine
 10
-51.22706464275232
 20
72.96616505818388
 30
0.0
 11
-60.8422390187237
 21
72.96616505818388
 31
0.0
  0
SOLID
  5
172
330
16E
100
AcDbEntity
  8
1
 62
     2
100
AcDbTrace
 10
-60.1447602723426
 20
88.76616505818377
 30
0.0
 11
-60.53971776510479
 21
88.76616505818377
 31
0.0
 12
-60.3422390187237
 22
90.26616505818377
 32
0.0
 13
-60.3422390187237
 23
90.26616505818377
 33
0.0
  0
SOLID
  5
173
330
16E
100
AcDbEntity
  8
1
 62
     2
100
AcDbTrace
 10
-60.53971776510479
 20
74.46616505818388
 30
0.0
 11
-60.1447602723426
 21
74.46616505818388
 31
0.0
 12
-60.3422390187237
 22
72.96616505818388
 32
0.0
 13
-60.3422390187237
 23
72.96616505818388
 33
0.0
  0
MTEXT
  5
174
330
16E
100
AcDbEntity
  8
1
 62
     4
100
AcDbMText
 10
-61.4922390187237
 20
79.77866505818382
 30
0.0
 40
1.5
 41
0.0
 71
     7
 72
     1
  1
17,3
  7
CONVERTER_13
 11
0.0
 21
1.0
 31
0.0
 73
     1
 44
0.60024009603842
  0
ENDBLK
  5
176
330
16E
100
AcDbEntity
  8
0
100
AcDbBlockEnd
  0
BLOCK
  5
181
330
179
100
AcDbEntity
  8
0
100
AcDbBlockBegin
  2
*D4
 70
     1
 10
0.0
 20
0.0
 30
0.0
  3
*D4
  1

  0
LINE
  5
17A
330
179
100
AcDbEntity
  8
1
  6
Continuous
 62
     2
100
AcDbLine
 10
-51.82706464275235
 20
81.7003167239457
 30
0.0
 11
-44.62706464275237
 21
81.7003167239457
 31
0.0
  0
LINE
  5
17B
330
179
100
AcDbEntity
  8
1
  6
Continuous
 62
     2
100
AcDbLine
 10
-44.62706464275237
 20
81.7003167239457
 30
0.0
 11
-37.82899081363214
 21
81.7003167239457
 31
0.0
  0
LINE
  5
17C
330
179
100
AcDbEntity
  8
1
  6
Continuous
 62
     2
100
AcDbLine
 10
-51.82706464275235
 20
82.71616505818388
 30
0.0
 11
-51.82706464275235
 21
81.2003167239457
 31
0.0
  0
LINE
  5
17D
330
179
100
AcDbEntity
  8
1
  6
Continuous
 62
     2
100
AcDbLine
 10
-44.62706464275237
 20
82.71616505818388
 30
0.0
 11
-44.62706464275237
 21
81.2003167239457
 31
0.0
  0
SOLID
  5
17E
330
179
100
AcDbEntity
  8
1
 62
     2
100
AcDbTrace
 10
-50.32706464275235
 20
81.8977954703268
 30
0.0
 11
-50.32706464275235
 21
81.50283797756461
 31
0.0
 12
-51.82706464275235
 22
81.7003167239457
 32
0.0
 13
-51.82706464275235
 23
81.7003167239457
 33
0.0
  0
SOLID
  5
17F
330
179
100
AcDbEntity
  8
1
 62
     2
100
AcDbTrace
 10
-46.12706464275237
 20
81.50283797756461
 30
0.0
 11
-46.12706464275237
 21
81.8977954703268
 31
0.0
 12
-44.62706464275237
 22
81.7003167239457
 32
0.0
 13
-44.62706464275237
 23
81.7003167239457
 33
0.0
  0
MTEXT
  5
180
330
179
100
AcDbEntity
  8
1
 62
     4
100
AcDbMText
 10
-40.60399081363214
 20
82.85031672394571
 30
0.0
 40
1.5
 41
0.0
 71
     7
 72
     1
  1
7,2
  7
CONVERTER_13
 11
0.9999999999970619
 21
2.424068405545306E-6
 31
0.0
 73
     1
 44
0.60024009603842
  0
ENDBLK
  5
182
330
179
100
AcDbEntity
  8
0
100
AcDbBlockEnd
  0
BLOCK
  5
18D
330
185
100
AcDbEntity
  8
0
100
AcDbBlockBegin
  2
*D5
 70
     1
 10
0.0
 20
0.0
 30
0.0
  3
*D5
  1

  0
LINE
  5
186
330
185
100
AcDbEntity
  8
1
  6
Continuous
 62
     2
100
AcDbLine
 10
-51.62706464275237
 20
75.0580177635881
 30
0.0
 11
-44.82706464275235
 21
75.0580177635881
 31
0.0
  0
LINE
  5
187
330
185
100
AcDbEntity
  8
1
  6
Continuous
 62
     2
100
AcDbLine
 10
-44.82706464275235
 20
75.0580177635881
 30
0.0
 11
-37.77317317530974
 21
75.0580177635881
 31
0.0
  0
LINE
  5
188
330
185
100
AcDbEntity
  8
1
  6
Continuous
 62
     2
100
AcDbLine
 10
-51.62706464275237
 20
77.21616505818388
 30
0.0
 11
-51.62706464275237
 21
74.5580177635881
 31
0.0
  0
LINE
  5
189
330
185
100
AcDbEntity
  8
1
  6
Continuous
 62
     2
100
AcDbLine
 10
-44.82706464275235
 20
77.21616505818388
 30
0.0
 11
-44.82706464275235
 21
74.5580177635881
 31
0.0
  0
SOLID
  5
18A
330
185
100
AcDbEntity
  8
1
 62
     2
100
AcDbTrace
 10
-50.12706464275237
 20
75.25549650996919
 30
0.0
 11
-50.12706464275237
 21
74.860539017207
 31
0.0
 12
-51.62706464275237
 22
75.0580177635881
 32
0.0
 13
-51.62706464275237
 23
75.0580177635881
 33
0.0
  0
SOLID
  5
18B
330
185
100
AcDbEntity
  8
1
 62
     2
100
AcDbTrace
 10
-46.32706464275235
 20
74.860539017207
 30
0.0
 11
-46.32706464275235
 21
75.25549650996919
 31
0.0
 12
-44.82706464275235
 22
75.0580177635881
 32
0.0
 13
-44.82706464275235
 23
75.0580177635881
 33
0.0
  0
MTEXT
  5
18C
330
185
100
AcDbEntity
  8
1
 62
     4
100
AcDbMText
 10
-40.54817317530974
 20
76.2080177635881
 30
0.0
 40
1.5
 41
0.0
 71
     7
 72
     1
  1
6,8
  7
CONVERTER_13
 11
0.9999999999970619
 21
2.424068405545306E-6
 31
0.0
 73
     1
 44
0.60024009603842
  0
ENDBLK
  5
18E
330
185
100
AcDbEntity
  8
0
100
AcDbBlockEnd
  0
BLOCK
  5
19A
330
191
100
AcDbEntity
  8
0
100
AcDbBlockBegin
  2
*D6
 70
     1
 10
0.0
 20
0.0
 30
0.0
  3
*D6
  1

  0
LINE
  5
192
330
191
100
AcDbEntity
  8
1
  6
Continuous
 62
     2
100
AcDbLine
 10
-52.4770646423836
 20
66.0713779936925
 30
0.0
 11
-49.4770646423836
 21
66.0713779936925
 31
0.0
  0
LINE
  5
193
330
191
100
AcDbEntity
  8
1
  6
Continuous
 62
     2
100
AcDbLine
 10
-49.4770646423836
 20
66.0713779936925
 30
0.0
 11
-46.97706464238365
 21
66.0713779936925
 31
0.0
  0
LINE
  5
194
330
191
100
AcDbEntity
  8
1
  6
Continuous
 62
     2
100
AcDbLine
 10
-46.97706464238365
 20
66.0713779936925
 30
0.0
 11
-38.67851996330204
 21
66.0713779936925
 31
0.0
  0
LINE
  5
195
330
191
100
AcDbEntity
  8
1
  6
Continuous
 62
     2
100
AcDbLine
 10
-49.4770646423836
 20
70.5161650581844
 30
0.0
 11
-49.4770646423836
 21
65.5713779936925
 31
0.0
  0
LINE
  5
196
330
191
100
AcDbEntity
  8
1
  6
Continuous
 62
     2
100
AcDbLine
 10
-46.97706464238365
 20
70.5161650581844
 30
0.0
 11
-46.97706464238365
 21
65.5713779936925
 31
0.0
  0
SOLID
  5
197
330
191
100
AcDbEntity
  8
1
 62
     2
100
AcDbTrace
 10
-50.9770646423836
 20
65.8738992473114
 30
0.0
 11
-50.9770646423836
 21
66.26885674007359
 31
0.0
 12
-49.4770646423836
 22
66.0713779936925
 32
0.0
 13
-49.4770646423836
 23
66.0713779936925
 33
0.0
  0
SOLID
  5
198
330
191
100
AcDbEntity
  8
1
 62
     2
100
AcDbTrace
 10
-45.47706464238365
 20
66.26885674007359
 30
0.0
 11
-45.47706464238365
 21
65.8738992473114
 31
0.0
 12
-46.97706464238365
 22
66.0713779936925
 32
0.0
 13
-46.97706464238365
 23
66.0713779936925
 33
0.0
  0
MTEXT
  5
199
330
191
100
AcDbEntity
  8
1
 62
     4
100
AcDbMText
 10
-42.68351996329843
 20
67.22137501208836
 30
0.0
 40
1.5
 41
0.0
 71
     7
 72
     1
  1
\C4;\U+00f8\C4;2,5
  7
CONVERTER_13
 11
0.9999999999970619
 21
2.424068405545306E-6
 31
0.0
 73
     1
 44
0.60024009603842
  0
ENDBLK
  5
19B
330
191
100
AcDbEntity
  8
0
100
AcDbBlockEnd
  0
ENDSEC
  0
SECTION
  2
ENTITIES
  0
INSERT
  5
4E
330
1F
100
AcDbEntity
  8
0
100
AcDbBlockReference
  2
A4
 10
0.27293535724763
 20
0.0
 30
0.0
  0
LINE
  5
A6
330
1F
100
AcDbEntity
  8
0
  6
Continuous
 62
     7
100
AcDbLine
 10
-44.87706464275237
 20
90.26616505818377
 30
0.0
 11
-44.87706464275237
 21
80.30539554272518
 31
0.0
  0
LINE
  5
A7
330
1F
100
AcDbEntity
  8
0
  6
Continuous
 62
     7
100
AcDbLine
 10
-45.87706464275237
 20
78.46616505818388
 30
0.0
 11
-44.82706464275235
 21
78.46616505818388
 31
0.0
  0
LINE
  5
A8
330
1F
100
AcDbEntity
  8
0
  6
Continuous
 62
     7
100
AcDbLine
 10
-45.47706464275235
 20
72.96616505818388
 30
0.0
 11
-45.47706464275235
 21
77.46616505818388
 31
0.0
  0
LINE
  5
A9
330
1F
100
AcDbEntity
  8
0
  6
Continuous
 62
     7
100
AcDbLine
 10
-45.97706464275235
 20
72.96616505818388
 30
0.0
 11
-45.47706464275235
 21
72.96616505818388
 31
0.0
  0
LINE
  5
AA
330
1F
100
AcDbEntity
  8
0
  6
Continuous
 62
     7
100
AcDbLine
 10
-44.87706464275237
 20
90.26616505818377
 30
0.0
 11
-45.87706464275237
 21
90.26616505818377
 31
0.0
  0
LINE
  5
AB
330
1F
100
AcDbEntity
  8
0
  6
Continuous
 62
     7
100
AcDbLine
 10
-45.60206464275235
 20
79.0496587072377
 30
0.0
 11
-44.87706464275237
 21
80.30539554272518
 31
0.0
  0
LINE
  5
AC
330
1F
100
AcDbEntity
  8
0
  6
Continuous
 62
     7
100
AcDbLine
 10
-44.87706464275237
 20
80.30539554272518
 30
0.0
 11
-44.62706464275237
 21
80.73840824461728
 31
0.0
  0
LINE
  5
AD
330
1F
100
AcDbEntity
  8
0
  6
Continuous
 62
     7
100
AcDbLine
 10
-44.87706464275237
 20
82.96616505818388
 30
0.0
 11
-44.62706464275237
 21
82.96616505818388
 31
0.0
  0
LINE
  5
AE
330
1F
100
AcDbEntity
  8
0
  6
Continuous
 62
     7
100
AcDbLine
 10
-45.60206464275235
 20
79.0496587072377
 30
0.0
 11
-45.60206464275235
 21
78.46616505818388
 31
0.0
  0
LINE
  5
AF
330
1F
100
AcDbEntity
  8
0
  6
Continuous
 62
     7
100
AcDbLine
 10
-44.82706464275235
 20
77.46616505818388
 30
0.0
 11
-45.97706464275235
 21
77.46616505818388
 31
0.0
  0
LINE
  5
B0
330
1F
100
AcDbEntity
  8
0
  6
Continuous
 62
     7
100
AcDbLine
 10
-44.82706464275235
 20
77.46616505818388
 30
0.0
 11
-44.82706464275235
 21
78.46616505818388
 31
0.0
  0
LINE
  5
B1
330
1F
100
AcDbEntity
  8
0
  6
Continuous
 62
     7
100
AcDbLine
 10
-46.97706464238365
 20
70.7661650581844
 30
0.0
 11
-46.97706464238365
 21
72.96616505818388
 31
0.0
  0
LINE
  5
B2
330
1F
100
AcDbEntity
  8
0
  6
Continuous
 62
     7
100
AcDbLine
 10
-44.62706464275237
 20
80.73840824461728
 30
0.0
 11
-44.62706464275237
 21
82.96616505818388
 31
0.0
  0
LINE
  5
B3
330
1F
100
AcDbEntity
  8
0
  6
Continuous
 62
     7
100
AcDbLine
 10
-51.57706464275235
 20
80.30539554272518
 30
0.0
 11
-50.85206464275233
 21
79.0496587072377
 31
0.0
  0
LINE
  5
B4
330
1F
100
AcDbEntity
  8
0
  6
Continuous
 62
     7
100
AcDbLine
 10
-50.97706464275233
 20
72.96616505818388
 30
0.0
 11
-50.97706464275233
 21
77.46616505818388
 31
0.0
  0
LINE
  5
B5
330
1F
100
AcDbEntity
  8
0
  6
Continuous
 62
     7
100
AcDbLine
 10
-50.85206464275233
 20
78.46616505818388
 30
0.0
 11
-50.85206464275233
 21
79.0496587072377
 31
0.0
  0
LINE
  5
B6
330
1F
100
AcDbEntity
  8
0
  6
Continuous
 62
     7
100
AcDbLine
 10
-51.82706464275235
 20
82.96616505818388
 30
0.0
 11
-51.57706464275235
 21
82.96616505818388
 31
0.0
  0
LINE
  5
B7
330
1F
100
AcDbEntity
  8
0
  6
Continuous
 62
     7
100
AcDbLine
 10
-51.82706464275235
 20
82.96616505818388
 30
0.0
 11
-51.82706464275235
 21
80.7384082446175
 31
0.0
  0
LINE
  5
B8
330
1F
100
AcDbEntity
  8
0
  6
Continuous
 62
     7
100
AcDbLine
 10
-51.82706464275235
 20
80.7384082446175
 30
0.0
 11
-51.57706464275235
 21
80.30539554272518
 31
0.0
  0
LINE
  5
B9
330
1F
100
AcDbEntity
  8
0
  6
Continuous
 62
     7
100
AcDbLine
 10
-51.62706464275237
 20
78.46616505818388
 30
0.0
 11
-50.57706464275235
 21
78.46616505818388
 31
0.0
  0
LINE
  5
BA
330
1F
100
AcDbEntity
  8
0
  6
Continuous
 62
     7
100
AcDbLine
 10
-51.62706464275237
 20
78.46616505818388
 30
0.0
 11
-51.62706464275237
 21
77.46616505818388
 31
0.0
  0
LINE
  5
BB
330
1F
100
AcDbEntity
  8
0
  6
Continuous
 62
     7
100
AcDbLine
 10
-50.47706464275233
 20
77.46616505818388
 30
0.0
 11
-51.62706464275237
 21
77.46616505818388
 31
0.0
  0
LINE
  5
BC
330
1F
100
AcDbEntity
  8
0
  6
Continuous
 62
     7
100
AcDbLine
 10
-51.57706464275235
 20
90.26616505818377
 30
0.0
 11
-50.57706464275235
 21
90.26616505818377
 31
0.0
  0
LINE
  5
BD
330
1F
100
AcDbEntity
  8
0
  6
Continuous
 62
     7
100
AcDbLine
 10
-51.57706464275235
 20
80.30539554272518
 30
0.0
 11
-51.57706464275235
 21
90.26616505818377
 31
0.0
  0
LINE
  5
BE
330
1F
100
AcDbEntity
  8
0
  6
Continuous
 62
     7
100
AcDbLine
 10
-49.4770646423836
 20
70.7661650581844
 30
0.0
 11
-49.47706464238365
 21
72.96616505818388
 31
0.0
  0
LINE
  5
BF
330
1F
100
AcDbEntity
  8
0
  6
Continuous
 62
     7
100
AcDbLine
 10
-50.47706464275233
 20
72.96616505818388
 30
0.0
 11
-45.97706464275235
 21
72.96616505818388
 31
0.0
  0
LINE
  5
C0
330
1F
100
AcDbEntity
  8
0
  6
Continuous
 62
     7
100
AcDbLine
 10
-45.87706464275237
 20
90.26616505818377
 30
0.0
 11
-50.57706464275235
 21
90.26616505818377
 31
0.0
  0
LINE
  5
C1
330
1F
100
AcDbEntity
  8
0
  6
Continuous
 62
     7
100
AcDbLine
 10
-49.4770646423836
 20
70.7661650581844
 30
0.0
 11
-46.97706464238365
 21
70.7661650581844
 31
0.0
  0
LINE
  5
C2
330
1F
100
AcDbEntity
  8
0
  6
Continuous
 62
     7
100
AcDbLine
 10
-50.97706464275233
 20
72.96616505818388
 30
0.0
 11
-50.47706464275233
 21
72.96616505818388
 31
0.0
  0
LINE
  5
C3
330
1F
100
AcDbEntity
  8
0
  6
Continuous
 62
     7
100
AcDbLine
 10
-49.97706464201497
 20
72.96616505818388
 30
0.0
 11
-49.97706464201497
 21
83.96616505818388
 31
0.0
  0
LINE
  5
C4
330
1F
100
AcDbEntity
  8
0
  6
Continuous
 62
     7
100
AcDbLine
 10
-46.47706464201499
 20
83.96616505818388
 30
0.0
 11
-46.47706464201499
 21
72.96616505818388
 31
0.0
  0
LINE
  5
C5
330
1F
100
AcDbEntity
  8
0
  6
Continuous
 62
     7
100
AcDbLine
 10
-49.97706464201497
 20
83.96616505818388
 30
0.0
 11
-51.577064642015
 21
83.96616505818388
 31
0.0
  0
LINE
  5
C6
330
1F
100
AcDbEntity
  8
0
  6
Continuous
 62
     7
100
AcDbLine
 10
-46.47706464201499
 20
83.96616505818388
 30
0.0
 11
-44.87706464201502
 21
83.96616505818388
 31
0.0
  0
LINE
  5
C7
330
1F
100
AcDbEntity
  8
0
  6
Continuous
 62
     7
100
AcDbLine
 10
-49.72706464275225
 20
104.7661650581837
 30
0.0
 11
-49.97706464275225
 21
104.7661650581837
 31
0.0
  0
LINE
  5
C8
330
1F
100
AcDbEntity
  8
0
  6
Continuous
 62
     7
100
AcDbLine
 10
-49.72706464275225
 20
102.7661650581837
 30
0.0
 11
-49.97706464275225
 21
102.7661650581837
 31
0.0
  0
LINE
  5
C9
330
1F
100
AcDbEntity
  8
0
  6
Continuous
 62
     7
100
AcDbLine
 10
-49.97706464275227
 20
101.7661650581837
 30
0.0
 11
-49.97706464275228
 21
99.26616505818374
 31
0.0
  0
LINE
  5
CA
330
1F
100
AcDbEntity
  8
0
  6
Continuous
 62
     7
100
AcDbLine
 10
-49.72706464275225
 20
102.7661650581837
 30
0.0
 11
-49.72706464275227
 21
101.7661650581837
 31
0.0
  0
LINE
  5
CB
330
1F
100
AcDbEntity
  8
0
  6
Continuous
 62
     7
100
AcDbLine
 10
-49.97706464275225
 20
103.7661650581837
 30
0.0
 11
-49.97706464275225
 21
102.7661650581837
 31
0.0
  0
LINE
  5
CC
330
1F
100
AcDbEntity
  8
0
  6
Continuous
 62
     7
100
AcDbLine
 10
-49.72706464275225
 20
104.7661650581837
 30
0.0
 11
-49.72706464275225
 21
103.7661650581837
 31
0.0
  0
LINE
  5
CD
330
1F
100
AcDbEntity
  8
0
  6
Continuous
 62
     7
100
AcDbLine
 10
-49.67706464275223
 20
106.2661650581837
 30
0.0
 11
-49.97706464275224
 21
105.9661650581838
 31
0.0
  0
LINE
  5
CE
330
1F
100
AcDbEntity
  8
0
  6
Continuous
 62
     7
100
AcDbLine
 10
-49.97706464275224
 20
105.9661650581838
 30
0.0
 11
-49.97706464275225
 21
104.7661650581837
 31
0.0
  0
LINE
  5
CF
330
1F
100
AcDbEntity
  8
0
  6
Continuous
 62
     7
100
AcDbLine
 10
-49.72706464275225
 20
103.7661650581837
 30
0.0
 11
-49.97706464275225
 21
103.7661650581837
 31
0.0
  0
LINE
  5
D0
330
1F
100
AcDbEntity
  8
0
  6
Continuous
 62
     7
100
AcDbLine
 10
-46.47706464346831
 20
103.7661650581837
 30
0.0
 11
-46.72706464346831
 21
103.7661650581837
 31
0.0
  0
LINE
  5
D1
330
1F
100
AcDbEntity
  8
0
  6
Continuous
 62
     7
100
AcDbLine
 10
-49.72706464275227
 20
101.7661650581837
 30
0.0
 11
-49.97706464275227
 21
101.7661650581837
 31
0.0
  0
LINE
  5
D2
330
1F
100
AcDbEntity
  8
0
  6
Continuous
 62
     7
100
AcDbLine
 10
-46.47706464346834
 20
101.7661650581837
 30
0.0
 11
-46.72706464346834
 21
101.7661650581837
 31
0.0
  0
LINE
  5
D3
330
1F
100
AcDbEntity
  8
0
  6
Continuous
 62
     7
100
AcDbLine
 10
-46.47706464346835
 20
99.26616505818372
 30
0.0
 11
-49.97706464275228
 21
99.26616505818374
 31
0.0
  0
LINE
  5
D4
330
1F
100
AcDbEntity
  8
0
  6
Continuous
 62
     7
100
AcDbLine
 10
-49.97706464275228
 20
99.26616505818374
 30
0.0
 11
-50.7270646427523
 21
98.51616505818374
 31
0.0
  0
LINE
  5
D5
330
1F
100
AcDbEntity
  8
0
  6
Continuous
 62
     7
100
AcDbLine
 10
-46.72706464346834
 20
101.7661650581837
 30
0.0
 11
-49.72706464275227
 21
101.7661650581837
 31
0.0
  0
LINE
  5
D6
330
1F
100
AcDbEntity
  8
0
  6
Continuous
 62
     7
100
AcDbLine
 10
-46.72706464346834
 20
102.7661650581837
 30
0.0
 11
-49.72706464275225
 21
102.7661650581837
 31
0.0
  0
LINE
  5
D7
330
1F
100
AcDbEntity
  8
0
  6
Continuous
 62
     7
100
AcDbLine
 10
-46.72706464346831
 20
103.7661650581837
 30
0.0
 11
-49.72706464275225
 21
103.7661650581837
 31
0.0
  0
LINE
  5
D8
330
1F
100
AcDbEntity
  8
0
  6
Continuous
 62
     7
100
AcDbLine
 10
-46.72706464346831
 20
104.7661650581837
 30
0.0
 11
-49.72706464275225
 21
104.7661650581837
 31
0.0
  0
LINE
  5
D9
330
1F
100
AcDbEntity
  8
0
  6
Continuous
 62
     7
100
AcDbLine
 10
-46.47706464346831
 20
105.9661650581837
 30
0.0
 11
-49.97706464275224
 21
105.9661650581838
 31
0.0
  0
LINE
  5
DA
330
1F
100
AcDbEntity
  8
0
  6
Continuous
 62
     7
100
AcDbLine
 10
-46.77706464346832
 20
106.2661650581837
 30
0.0
 11
-49.67706464275223
 21
106.2661650581837
 31
0.0
  0
LINE
  5
DB
330
1F
100
AcDbEntity
  8
0
  6
Continuous
 62
     7
100
AcDbLine
 10
-45.72706464346837
 20
98.51616505818372
 30
0.0
 11
-50.7270646427523
 21
98.51616505818374
 31
0.0
  0
LINE
  5
DC
330
1F
100
AcDbEntity
  8
0
  6
Continuous
 62
     7
100
AcDbLine
 10
-50.72706464275231
 20
95.26616505818377
 30
0.0
 11
-51.17706464311036
 21
95.26616505818377
 31
0.0
  0
LINE
  5
DD
330
1F
100
AcDbEntity
  8
0
  6
Continuous
 62
     7
100
AcDbLine
 10
-45.7270646434684
 20
95.26616505818373
 30
0.0
 11
-50.72706464275231
 21
95.26616505818377
 31
0.0
  0
LINE
  5
DE
330
1F
100
AcDbEntity
  8
0
  6
Continuous
 62
     7
100
AcDbLine
 10
-50.7270646427523
 20
98.51616505818374
 30
0.0
 11
-50.72706464275231
 21
95.26616505818377
 31
0.0
  0
LINE
  5
DF
330
1F
100
AcDbEntity
  8
0
  6
Continuous
 62
     7
100
AcDbLine
 10
-51.17706464311036
 20
95.26616505818377
 30
0.0
 11
-51.17706464311038
 21
90.26616505818379
 31
0.0
  0
LINE
  5
E0
330
1F
100
AcDbEntity
  8
0
  6
Continuous
 62
     7
100
AcDbLine
 10
-46.47706464346831
 20
105.9661650581837
 30
0.0
 11
-46.47706464346831
 21
104.7661650581837
 31
0.0
  0
LINE
  5
E1
330
1F
100
AcDbEntity
  8
0
  6
Continuous
 62
     7
100
AcDbLine
 10
-46.47706464346831
 20
104.7661650581837
 30
0.0
 11
-46.72706464346831
 21
104.7661650581837
 31
0.0
  0
LINE
  5
E2
330
1F
100
AcDbEntity
  8
0
  6
Continuous
 62
     7
100
AcDbLine
 10
-46.47706464346834
 20
102.7661650581837
 30
0.0
 11
-46.72706464346834
 21
102.7661650581837
 31
0.0
  0
LINE
  5
E3
330
1F
100
AcDbEntity
  8
0
  6
Continuous
 62
     7
100
AcDbLine
 10
-45.27706464311035
 20
95.26616505818373
 30
0.0
 11
-45.7270646434684
 21
95.26616505818373
 31
0.0
  0
LINE
  5
E4
330
1F
100
AcDbEntity
  8
0
  6
Continuous
 62
     7
100
AcDbLine
 10
-45.72706464346837
 20
98.51616505818372
 30
0.0
 11
-45.7270646434684
 21
95.26616505818373
 31
0.0
  0
LINE
  5
E5
330
1F
100
AcDbEntity
  8
0
  6
Continuous
 62
     7
100
AcDbLine
 10
-46.47706464346835
 20
99.26616505818372
 30
0.0
 11
-45.72706464346837
 21
98.51616505818372
 31
0.0
  0
LINE
  5
E6
330
1F
100
AcDbEntity
  8
0
  6
Continuous
 62
     7
100
AcDbLine
 10
-46.47706464346834
 20
101.7661650581837
 30
0.0
 11
-46.47706464346835
 21
99.26616505818372
 31
0.0
  0
LINE
  5
E7
330
1F
100
AcDbEntity
  8
0
  6
Continuous
 62
     7
100
AcDbLine
 10
-46.72706464346834
 20
102.7661650581837
 30
0.0
 11
-46.72706464346834
 21
101.7661650581837
 31
0.0
  0
LINE
  5
E8
330
1F
100
AcDbEntity
  8
0
  6
Continuous
 62
     7
100
AcDbLine
 10
-46.47706464346831
 20
103.7661650581837
 30
0.0
 11
-46.47706464346834
 21
102.7661650581837
 31
0.0
  0
LINE
  5
E9
330
1F
100
AcDbEntity
  8
0
  6
Continuous
 62
     7
100
AcDbLine
 10
-46.72706464346831
 20
104.7661650581837
 30
0.0
 11
-46.72706464346831
 21
103.7661650581837
 31
0.0
  0
LINE
  5
EA
330
1F
100
AcDbEntity
  8
0
  6
Continuous
 62
     7
100
AcDbLine
 10
-45.27706464311035
 20
95.26616505818373
 30
0.0
 11
-45.27706464311039
 21
90.26616505818376
 31
0.0
  0
LINE
  5
EB
330
1F
100
AcDbEntity
  8
0
  6
Continuous
 62
     7
100
AcDbLine
 10
-46.77706464346832
 20
106.2661650581837
 30
0.0
 11
-46.47706464346831
 21
105.9661650581837
 31
0.0
  0
LINE
  5
EC
330
1F
100
AcDbEntity
  8
0
  6
Continuous
 62
     7
100
AcDbLine
 10
-15.15231732089258
 20
131.2515409201291
 30
0.0
 11
-15.14631140404957
 21
130.5922770308149
 31
0.0
  0
LINE
  5
ED
330
1F
100
AcDbEntity
  8
0
  6
Continuous
 62
     7
100
AcDbLine
 10
-14.59830364863
 20
130.9745340839978
 30
0.0
 11
-15.15231732089258
 21
131.2515409201291
 31
0.0
  0
LINE
  5
EE
330
1F
100
AcDbEntity
  8
0
  6
Continuous
 62
     7
100
AcDbLine
 10
-14.66374246949029
 20
135.5348905441079
 30
0.0
 11
-19.11851519096551
 21
137.7622769048455
 31
0.0
  0
LINE
  5
EF
330
1F
100
AcDbEntity
  8
0
  6
Continuous
 62
     7
100
AcDbLine
 10
-28.17909465588577
 20
135.0289972040034
 30
0.0
 11
-26.73875077069765
 21
134.3088252614093
 31
0.0
  0
LINE
  5
F0
330
1F
100
AcDbEntity
  8
0
  6
Continuous
 62
     7
100
AcDbLine
 10
-14.66919472991772
 20
134.8613440206442
 30
0.0
 11
-14.4038492838037
 21
134.9940167437012
 31
0.0
  0
LINE
  5
F1
330
1F
100
AcDbEntity
  8
0
  6
Continuous
 62
     7
100
AcDbLine
 10
-11.8152943350619
 20
133.6997392693303
 30
0.0
 11
-14.4038492838037
 21
134.9940167437012
 31
0.0
  0
LINE
  5
F2
330
1F
100
AcDbEntity
  8
0
  6
Continuous
 62
     7
100
AcDbLine
 10
-15.53522013370217
 20
135.2943567225364
 30
0.0
 11
-7.75704554065014
 21
131.4052694260104
 31
0.0
  0
LINE
  5
F3
330
1F
100
AcDbEntity
  8
0
  6
Continuous
 62
     7
100
AcDbLine
 10
-26.08224373516464
 20
133.4774564483051
 30
0.0
 11
-23.59623743922881
 21
132.2344533003371
 31
0.0
  0
LINE
  5
F4
330
1F
100
AcDbEntity
  8
0
  6
Continuous
 62
     7
100
AcDbLine
 10
-15.15231732089258
 20
131.2515409201291
 30
0.0
 11
-15.39379877746486
 21
131.1756401252938
 31
0.0
  0
LINE
  5
F5
330
1F
100
AcDbEntity
  8
0
  6
Continuous
 62
     7
100
AcDbLine
 10
-15.39379877746486
 20
131.1756401252938
 30
0.0
 11
-16.55290976901172
 21
131.3309315523553
 31
0.0
  0
LINE
  5
F6
330
1F
100
AcDbEntity
  8
0
  6
Continuous
 62
     7
100
AcDbLine
 10
-15.39379877746486
 20
131.1756401252938
 30
0.0
 11
-18.71720064904163
 21
132.8373410610822
 31
0.0
  0
LINE
  5
F7
330
1F
100
AcDbEntity
  8
0
  6
Continuous
 62
     7
100
AcDbLine
 10
-15.53522013370217
 20
135.2943567225364
 30
0.0
 11
-15.11095606499025
 21
135.5064887568924
 31
0.0
  0
LINE
  5
F8
330
1F
100
AcDbEntity
  8
0
  6
Continuous
 62
     2
100
AcDbLine
 10
-23.59623743922881
 20
134.8525953874639
 30
0.0
 11
-19.14146471775355
 21
132.6252090267263
 31
0.0
  0
LINE
  5
F9
330
1F
100
AcDbEntity
  8
0
  6
Continuous
 62
     7
100
AcDbLine
 10
-19.5657287864655
 20
137.73387511763
 30
0.0
 11
-22.88913065804226
 21
136.0721741818416
 31
0.0
  0
LINE
  5
FA
330
1F
100
AcDbEntity
  8
0
  6
Continuous
 62
     7
100
AcDbLine
 10
-19.14146471775355
 20
132.6252090267263
 30
0.0
 11
-18.71720064904163
 21
132.8373410610822
 31
0.0
  0
LINE
  5
FB
330
1F
100
AcDbEntity
  8
0
  6
Continuous
 62
     7
100
AcDbLine
 10
-18.434357936567
 20
133.844787821104
 30
0.0
 11
-18.01009386785508
 21
134.0569198554599
 31
0.0
  0
LINE
  5
FC
330
1F
100
AcDbEntity
  8
0
  6
Continuous
 62
     7
100
AcDbLine
 10
-18.71720064904163
 20
132.8373410610822
 30
0.0
 11
-18.01009386785508
 21
134.0569198554599
 31
0.0
  0
LINE
  5
FD
330
1F
100
AcDbEntity
  8
0
  6
Continuous
 62
     7
100
AcDbLine
 10
-23.59623743922881
 20
134.8525953874639
 30
0.0
 11
-23.59623743922881
 21
131.4750963127046
 31
0.0
  0
LINE
  5
FE
330
1F
100
AcDbEntity
  8
0
  6
Continuous
 62
     7
100
AcDbLine
 10
-16.55290976901172
 20
130.6381112293278
 30
0.0
 11
-16.55290976901172
 21
131.3309315523553
 31
0.0
  0
LINE
  5
FF
330
1F
100
AcDbEntity
  8
0
  6
Continuous
 62
     7
100
AcDbLine
 10
-17.03587268215624
 20
130.7028159906034
 30
0.0
 11
-16.55290976901172
 21
130.6381112293278
 31
0.0
  0
LINE
  5
100
330
1F
100
AcDbEntity
  8
0
  6
Continuous
 62
     7
100
AcDbLine
 10
-18.61113463186364
 20
131.4904469654572
 30
0.0
 11
-18.434357936567
 21
131.5788353131054
 31
0.0
  0
LINE
  5
101
330
1F
100
AcDbEntity
  8
0
  6
Continuous
 62
     7
100
AcDbLine
 10
-18.61113463186364
 20
131.4904469654572
 30
0.0
 11
-17.03587268215624
 21
130.7028159906034
 31
0.0
  0
LINE
  5
102
330
1F
100
AcDbEntity
  8
0
  6
Continuous
 62
     7
100
AcDbLine
 10
-18.434357936567
 20
131.5788353131054
 30
0.0
 11
-16.55290976901172
 21
130.6381112293278
 31
0.0
  0
LINE
  5
103
330
1F
100
AcDbEntity
  8
0
  6
Continuous
 62
     7
100
AcDbLine
 10
-19.14146471775355
 20
132.6252090267263
 30
0.0
 11
-16.55290976901172
 21
131.3309315523553
 31
0.0
  0
LINE
  5
104
330
1F
100
AcDbEntity
  8
0
  6
Continuous
 62
     2
100
AcDbLine
 10
-22.88913065804226
 20
136.0721741818416
 30
0.0
 11
-18.434357936567
 21
133.844787821104
 31
0.0
  0
LINE
  5
105
330
1F
100
AcDbEntity
  8
0
  6
Continuous
 62
     7
100
AcDbLine
 10
-33.56644305395902
 20
139.4924515420472
 30
0.0
 11
-33.56644305395903
 21
139.2803195076912
 31
0.0
  0
LINE
  5
106
330
1F
100
AcDbEntity
  8
0
  6
Continuous
 62
     7
100
AcDbLine
 10
-32.74619918798523
 20
141.1329392739948
 30
0.0
 11
-32.57649356050048
 21
141.2602184946084
 31
0.0
  0
LINE
  5
107
330
1F
100
AcDbEntity
  8
0
  6
Continuous
 62
     7
100
AcDbLine
 10
-33.11162997910056
 20
138.3337903571732
 30
0.0
 11
-32.2631018416767
 21
137.9095262884613
 31
0.0
  0
LINE
  5
108
330
1F
100
AcDbEntity
  8
0
  6
Continuous
 62
     7
100
AcDbLine
 10
-32.1512984428017
 20
138.1331330862113
 30
0.0
 11
-31.93789651111868
 21
138.0264321203697
 31
0.0
  0
LINE
  5
109
330
1F
100
AcDbEntity
  8
0
  6
Continuous
 62
     7
100
AcDbLine
 10
-30.80965765662205
 20
140.8164146585706
 30
0.0
 11
-30.59621254987831
 21
140.7096921051987
 31
0.0
  0
LINE
  5
10A
330
1F
100
AcDbEntity
  8
0
  6
Continuous
 62
     7
100
AcDbLine
 10
-31.55599506049014
 20
137.555972897868
 30
0.0
 11
-30.84888827930361
 21
137.2024195072748
 31
0.0
  0
LINE
  5
10B
330
1F
100
AcDbEntity
  8
0
  6
Continuous
 62
     7
100
AcDbLine
 10
-30.73708488042862
 20
137.4260263050247
 30
0.0
 11
-30.52368294874558
 21
137.3193253391832
 31
0.0
  0
LINE
  5
10C
330
1F
100
AcDbEntity
  8
0
  6
Continuous
 62
     7
100
AcDbLine
 10
-29.39544409424897
 20
140.109307877384
 30
0.0
 11
-29.18199898750524
 21
140.0025853240121
 31
0.0
  0
LINE
  5
10D
330
1F
100
AcDbEntity
  8
0
  6
Continuous
 62
     7
100
AcDbLine
 10
-30.14178149811707
 20
136.8488661166815
 30
0.0
 11
-28.82157278921734
 21
136.1887617622316
 31
0.0
  0
LINE
  5
10E
330
1F
100
AcDbEntity
  8
0
  6
Continuous
 62
     7
100
AcDbLine
 10
-28.82882762000919
 20
136.9115117907162
 30
0.0
 11
-28.8288276200092
 21
136.3811817048263
 31
0.0
  0
LINE
  5
10F
330
1F
100
AcDbEntity
  8
0
  6
Continuous
 62
     7
100
AcDbLine
 10
-27.83887812655057
 20
138.8914107776335
 30
0.0
 11
-27.41461405783864
 21
139.2096088291674
 31
0.0
  0
LINE
  5
110
330
1F
100
AcDbEntity
  8
0
  6
Continuous
 62
     2
100
AcDbLine
 10
-15.11095606499025
 20
135.5064887568924
 30
0.0
 11
-19.5657287864655
 21
137.73387511763
 31
0.0
  0
LINE
  5
111
330
1F
100
AcDbEntity
  8
0
  6
Continuous
 62
     7
100
AcDbLine
 10
-28.57653391418743
 20
139.9793612845407
 30
0.0
 11
-27.25632520528769
 21
139.3192569300908
 31
0.0
  0
LINE
  5
112
330
1F
100
AcDbEntity
  8
0
  6
Continuous
 62
     7
100
AcDbLine
 10
-29.99074747656051
 20
140.6864680657272
 30
0.0
 11
-29.28364069537399
 21
140.3329146751339
 31
0.0
  0
LINE
  5
113
330
1F
100
AcDbEntity
  8
0
  6
Continuous
 62
     7
100
AcDbLine
 10
-31.54638239517091
 20
141.4642855250324
 30
0.0
 11
-30.69785425774706
 21
141.0400214563205
 31
0.0
  0
LINE
  5
114
330
1F
100
AcDbEntity
  8
0
  6
Continuous
 62
     7
100
AcDbLine
 10
-25.9430266787062
 20
139.5011331583625
 30
0.0
 11
-24.5026070822291
 21
138.7809233601239
 31
0.0
  0
LINE
  5
115
330
1F
100
AcDbEntity
  8
0
  6
Continuous
 62
     7
100
AcDbLine
 10
-23.44368352171484
 20
138.7545768752046
 30
0.0
 11
-20.48400439651566
 21
137.2747373126049
 31
0.0
  0
LINE
  5
116
330
1F
100
AcDbEntity
  8
0
  6
Continuous
 62
     7
100
AcDbLine
 10
-14.50991530098166
 20
126.0305545007372
 30
0.0
 11
-15.14631140404957
 21
126.3487525522712
 31
0.0
  0
LINE
  5
117
330
1F
100
AcDbEntity
  8
0
  6
Continuous
 62
     7
100
AcDbLine
 10
-7.9978644837522
 20
126.3359246031321
 30
0.0
 11
-10.67569500851743
 21
127.6748398655147
 31
0.0
  0
LINE
  5
118
330
1F
100
AcDbEntity
  8
0
  6
Continuous
 62
     7
100
AcDbLine
 10
-7.77948767915835
 20
126.2844984744281
 30
0.0
 11
-10.58547266539633
 21
124.8815059813091
 31
0.0
  0
LINE
  5
119
330
1F
100
AcDbEntity
  8
0
  6
Continuous
 62
     7
100
AcDbLine
 10
-17.03587268215624
 20
128.7109575618992
 30
0.0
 11
-18.61113463186364
 21
129.4985885367529
 31
0.0
  0
LINE
  5
11A
330
1F
100
AcDbEntity
  8
0
  6
Continuous
 62
     7
100
AcDbLine
 10
-16.55290976901172
 20
128.6462528006236
 30
0.0
 11
-17.03587268215624
 21
128.7109575618992
 31
0.0
  0
LINE
  5
11B
330
1F
100
AcDbEntity
  8
0
  6
Continuous
 62
     7
100
AcDbLine
 10
-17.03587268215624
 20
128.7109575618992
 30
0.0
 11
-17.03587268215624
 21
130.7028159906034
 31
0.0
  0
LINE
  5
11C
330
1F
100
AcDbEntity
  8
0
  6
Continuous
 62
     2
100
AcDbLine
 10
-23.59623743922881
 20
131.4750963127046
 30
0.0
 11
-16.55290976901172
 21
127.953432477596
 31
0.0
  0
LINE
  5
11D
330
1F
100
AcDbEntity
  8
0
  6
Continuous
 62
     7
100
AcDbLine
 10
-18.61113463186364
 20
129.4985885367529
 30
0.0
 11
-18.61113463186364
 21
131.4904469654572
 31
0.0
  0
LINE
  5
11E
330
1F
100
AcDbEntity
  8
0
  6
Continuous
 62
     7
100
AcDbLine
 10
-23.33634425354222
 20
130.934222512298
 30
0.0
 11
-15.84286838117503
 21
127.1874845761144
 31
0.0
  0
LINE
  5
11F
330
1F
100
AcDbEntity
  8
0
  6
Continuous
 62
     7
100
AcDbLine
 10
-14.6866919962783
 20
130.8220867347006
 30
0.0
 11
-14.59830364863
 21
130.9745340839978
 31
0.0
  0
LINE
  5
120
330
1F
100
AcDbEntity
  8
0
  6
Continuous
 62
     7
100
AcDbLine
 10
-15.14631140404957
 20
130.5922770308149
 30
0.0
 11
-14.6866919962783
 21
130.8220867347006
 31
0.0
  0
LINE
  5
121
330
1F
100
AcDbEntity
  8
0
  6
Continuous
 62
     7
100
AcDbLine
 10
-14.05029589321042
 20
130.5038886831667
 30
0.0
 11
-14.50991530098166
 21
130.274078979281
 31
0.0
  0
LINE
  5
122
330
1F
100
AcDbEntity
  8
0
  6
Continuous
 62
     7
100
AcDbLine
 10
-15.14631140404957
 20
130.5922770308149
 30
0.0
 11
-14.50991530098166
 21
130.274078979281
 31
0.0
  0
LINE
  5
123
330
1F
100
AcDbEntity
  8
0
  6
Continuous
 62
     7
100
AcDbLine
 10
-14.05029589321042
 20
130.5038886831667
 30
0.0
 11
-14.6866919962783
 21
130.8220867347006
 31
0.0
  0
LINE
  5
124
330
1F
100
AcDbEntity
  8
0
  6
Continuous
 62
     7
100
AcDbLine
 10
-7.75704554065014
 20
131.4052694260104
 30
0.0
 11
-7.04993875946359
 21
130.8927974128193
 31
0.0
  0
LINE
  5
125
330
1F
100
AcDbEntity
  8
0
  6
Continuous
 62
     7
100
AcDbLine
 10
-10.23191927480305
 20
130.167832558934
 30
0.0
 11
-7.75704554065014
 21
131.4052694260104
 31
0.0
  0
LINE
  5
126
330
1F
100
AcDbEntity
  8
0
  6
Continuous
 62
     7
100
AcDbLine
 10
-7.04993875946359
 20
130.8927974128193
 30
0.0
 11
-7.04993875946359
 21
128.6570467128625
 31
0.0
  0
LINE
  5
127
330
1F
100
AcDbEntity
  8
0
  6
Continuous
 62
     7
100
AcDbLine
 10
-10.9390260559896
 20
128.9482537645562
 30
0.0
 11
-10.23191927480305
 21
130.167832558934
 31
0.0
  0
LINE
  5
128
330
1F
100
AcDbEntity
  8
0
  6
Continuous
 62
     7
100
AcDbLine
 10
-6.87983049500231
 20
128.5719925806318
 30
0.0
 11
-9.5576525008547
 21
129.9109035835581
 31
0.0
  0
LINE
  5
129
330
1F
100
AcDbEntity
  8
0
  6
Continuous
 62
     7
100
AcDbLine
 10
-14.05029589321042
 20
130.5038886831667
 30
0.0
 11
-10.9390260559896
 21
128.9482537645562
 31
0.0
  0
LINE
  5
12A
330
1F
100
AcDbEntity
  8
0
  6
Continuous
 62
     7
100
AcDbLine
 10
-14.05029589321042
 20
130.5038886831667
 30
0.0
 11
-14.05029589321042
 21
126.6933769065151
 31
0.0
  0
LINE
  5
12B
330
1F
100
AcDbEntity
  8
0
  6
Continuous
 62
     7
100
AcDbLine
 10
-16.55290976901172
 20
128.6462528006236
 30
0.0
 11
-16.55290976901172
 21
127.953432477596
 31
0.0
  0
LINE
  5
12C
330
1F
100
AcDbEntity
  8
0
  6
Continuous
 62
     7
100
AcDbLine
 10
-15.15231732089258
 20
126.9331535457277
 30
0.0
 11
-15.14631140404957
 21
126.3487525522712
 31
0.0
  0
LINE
  5
12D
330
1F
100
AcDbEntity
  8
0
  6
Continuous
 62
     7
100
AcDbLine
 10
-15.14631140404957
 20
130.5922770308149
 30
0.0
 11
-15.15231732089258
 21
126.9331535457277
 31
0.0
  0
LINE
  5
12E
330
1F
100
AcDbEntity
  8
0
  6
Continuous
 62
     7
100
AcDbLine
 10
-10.63868607715439
 20
132.8460896942625
 30
0.0
 11
-10.33798529198105
 21
132.9964400868492
 31
0.0
  0
LINE
  5
12F
330
1F
100
AcDbEntity
  8
0
  6
Continuous
 62
     7
100
AcDbLine
 10
-9.70158918891316
 20
132.6782420353153
 30
0.0
 11
-10.33798529198105
 21
132.9964400868492
 31
0.0
  0
LINE
  5
130
330
1F
100
AcDbEntity
  8
0
  6
Continuous
 62
     7
100
AcDbLine
 10
-9.70158918891316
 20
132.6782420353153
 30
0.0
 11
-10.00228997408651
 21
132.5278916427286
 31
0.0
  0
LINE
  5
131
330
1F
100
AcDbEntity
  8
0
  6
Continuous
 62
     7
100
AcDbLine
 10
-9.70158918891316
 20
132.6782420353153
 30
0.0
 11
-9.70158918891314
 21
132.3775412501419
 31
0.0
  0
LINE
  5
132
330
1F
100
AcDbEntity
  8
0
  6
Continuous
 62
     7
100
AcDbLine
 10
-11.8152943350619
 20
133.6997392693303
 30
0.0
 11
-11.62104798694937
 21
133.3372706491601
 31
0.0
  0
LINE
  5
133
330
1F
100
AcDbEntity
  8
0
  6
Continuous
 62
     7
100
AcDbLine
 10
-14.50991530098166
 20
126.0305545007372
 30
0.0
 11
-13.82274679509986
 21
126.3741387536781
 31
0.0
  0
LINE
  5
134
330
1F
100
AcDbEntity
  8
0
  6
Continuous
 62
     7
100
AcDbLine
 10
-10.9390260559896
 20
125.1377419879047
 30
0.0
 11
-10.9390260559896
 21
128.9482537645562
 31
0.0
  0
LINE
  5
135
330
1F
100
AcDbEntity
  8
0
  6
Continuous
 62
     7
100
AcDbLine
 10
-14.50991530098166
 20
126.0305545007372
 30
0.0
 11
-14.50991530098166
 21
130.274078979281
 31
0.0
  0
LINE
  5
136
330
1F
100
AcDbEntity
  8
0
  6
Continuous
 62
     2
100
AcDbLine
 10
-10.9390260559896
 20
125.1377419879047
 30
0.0
 11
-14.05029589321042
 21
126.6933769065151
 31
0.0
  0
LINE
  5
137
330
1F
100
AcDbEntity
  8
0
  6
Continuous
 62
     7
100
AcDbLine
 10
-10.80907946314632
 20
124.8673050877014
 30
0.0
 11
-13.92034930036711
 21
126.4229400063118
 31
0.0
  0
LINE
  5
138
330
1F
100
AcDbEntity
  8
0
  6
Continuous
 62
     7
100
AcDbLine
 10
-10.23191927480305
 20
130.167832558934
 30
0.0
 11
-18.01009386785508
 21
134.0569198554599
 31
0.0
  0
ARC
  5
139
330
1F
100
AcDbEntity
  8
0
  6
Continuous
 62
     7
100
AcDbCircle
 10
-14.27471711000895
 20
130.380630146338
 30
0.0
 40
3.557425620009283
100
AcDbArc
 50
243.8443816891539
 51
255.7179566476038
  0
SPLINE
  5
13A
330
1F
100
AcDbEntity
  8
0
  6
Continuous
 62
     7
100
AcDbSpline
210
0.0
220
0.0
230
1.0
 70
     8
 71
     3
 72
     9
 73
     5
 74
     3
 42
0.000000001
 43
0.0000000001
 44
0.00000001
 40
0.0
 40
0.0
 40
0.0
 40
0.0
 40
0.2470494853041586
 40
0.4606640939031998
 40
0.4606640939031998
 40
0.4606640939031998
 40
0.4606640939031998
 10
-15.11095606499025
 20
135.5064887568924
 30
0.0
 10
-15.03230125286437
 20
135.5395533164589
 30
0.0
 10
-14.88563651317789
 20
135.6012075663646
 30
0.0
 10
-14.73403952729654
 20
135.5559000892537
 30
0.0
 10
-14.66374246949029
 20
135.5348905441079
 30
0.0
 11
-15.11095606499025
 21
135.5064887568924
 31
0.0
 11
-14.87357307841905
 21
135.5749195030819
 31
0.0
 11
-14.66374246949029
 21
135.5348905441079
 31
0.0
  0
SPLINE
  5
13B
330
1F
100
AcDbEntity
  8
0
  6
Continuous
 62
     7
100
AcDbSpline
210
0.0
220
0.0
230
1.0
 70
     8
 71
     3
 72
     9
 73
     5
 74
     3
 42
0.000000001
 43
0.0000000001
 44
0.00000001
 40
0.0
 40
0.0
 40
0.0
 40
0.0
 40
1.014677969457216
 40
1.839814078462138
 40
1.839814078462138
 40
1.839814078462138
 40
1.839814078462138
 10
-26.84892863294007
 20
135.0730341595047
 30
0.0
 10
-26.82717614165686
 20
134.7180690494457
 30
0.0
 10
-26.7877345072676
 20
134.074446324118
 30
0.0
 10
-26.30068156034273
 20
133.6622996382925
 30
0.0
 10
-26.08224373516464
 20
133.4774564483051
 30
0.0
 11
-26.84892863294007
 21
135.0730341595047
 31
0.0
 11
-26.64752365816614
 21
134.078545635993
 31
0.0
 11
-26.08224373516464
 21
133.4774564483051
 31
0.0
  0
SPLINE
  5
13C
330
1F
100
AcDbEntity
  8
0
  6
Continuous
 62
     7
100
AcDbSpline
210
0.0
220
0.0
230
1.0
 70
     8
 71
     3
 72
     9
 73
     5
 74
     3
 42
0.000000001
 43
0.0000000001
 44
0.00000001
 40
0.0
 40
0.0
 40
0.0
 40
0.0
 40
0.7096758789358142
 40
1.454915358207779
 40
1.454915358207779
 40
1.454915358207779
 40
1.454915358207779
 10
-22.88913065804226
 20
136.0721741818416
 30
0.0
 10
-23.08036370861211
 20
135.9187344353151
 30
0.0
 10
-23.4724129524095
 20
135.6041656882193
 30
0.0
 10
-23.55429544424675
 20
135.1071683182693
 30
0.0
 10
-23.59623743922881
 20
134.8525953874639
 30
0.0
 11
-22.88913065804226
 21
136.0721741818416
 31
0.0
 11
-23.38903260552902
 21
135.5684501506969
 31
0.0
 11
-23.59623743922881
 21
134.8525953874639
 31
0.0
  0
SPLINE
  5
13D
330
1F
100
AcDbEntity
  8
0
  6
Continuous
 62
     7
100
AcDbSpline
210
0.0
220
0.0
230
1.0
 70
     8
 71
     3
 72
     9
 73
     5
 74
     3
 42
0.000000001
 43
0.0000000001
 44
0.00000001
 40
0.0
 40
0.0
 40
0.0
 40
0.0
 40
0.2797071537844034
 40
0.6236657856882273
 40
0.6236657856882273
 40
0.6236657856882273
 40
0.6236657856882273
 10
-14.66374246949029
 20
135.5348905441079
 30
0.0
 10
-14.58969574957023
 20
135.4722318360431
 30
0.0
 10
-14.42459306669085
 20
135.3325210883386
 30
0.0
 10
-14.4112230096236
 20
135.11434389902
 30
0.0
 10
-14.4038492838037
 20
134.9940167437012
 30
0.0
 11
-14.66374246949029
 21
135.5348905441079
 31
0.0
 11
-14.47212215660842
 21
135.331131497434
 31
0.0
 11
-14.4038492838037
 21
134.9940167437012
 31
0.0
  0
SPLINE
  5
13E
330
1F
100
AcDbEntity
  8
0
  6
Continuous
 62
     7
100
AcDbSpline
210
0.0
220
0.0
230
1.0
 70
     8
 71
     3
 72
     9
 73
     5
 74
     3
 42
0.000000001
 43
0.0000000001
 44
0.00000001
 40
0.0
 40
0.0
 40
0.0
 40
0.0
 40
0.3439586319037971
 40
0.6236657856881553
 40
0.6236657856881553
 40
0.6236657856881553
 40
0.6236657856881553
 10
-23.59623743922881
 20
131.4750963127046
 30
0.0
 10
-23.58886371340891
 20
131.3547691573858
 30
0.0
 10
-23.57549365634166
 20
131.1365919680673
 30
0.0
 10
-23.41039097346228
 20
130.9968812203627
 30
0.0
 10
-23.33634425354222
 20
130.934222512298
 30
0.0
 11
-23.59623743922881
 21
131.4750963127046
 31
0.0
 11
-23.52796456642408
 21
131.1379815589718
 31
0.0
 11
-23.33634425354222
 21
130.934222512298
 31
0.0
  0
SPLINE
  5
13F
330
1F
100
AcDbEntity
  8
0
  6
Continuous
 62
     7
100
AcDbSpline
210
0.0
220
0.0
230
1.0
 70
     8
 71
     3
 72
     9
 73
     5
 74
     3
 42
0.000000001
 43
0.0000000001
 44
0.00000001
 40
0.0
 40
0.0
 40
0.0
 40
0.0
 40
0.7096758789358595
 40
1.454915358207768
 40
1.454915358207768
 40
1.454915358207768
 40
1.454915358207768
 10
-18.434357936567
 20
133.844787821104
 30
0.0
 10
-18.62559098713685
 20
133.6913480745775
 30
0.0
 10
-19.01764023093422
 20
133.3767793274817
 30
0.0
 10
-19.09952272277149
 20
132.8797819575316
 30
0.0
 10
-19.14146471775355
 20
132.6252090267263
 30
0.0
 11
-18.434357936567
 21
133.844787821104
 31
0.0
 11
-18.93425988405377
 21
133.3410637899592
 31
0.0
 11
-19.14146471775355
 21
132.6252090267263
 31
0.0
  0
SPLINE
  5
140
330
1F
100
AcDbEntity
  8
0
  6
Continuous
 62
     7
100
AcDbSpline
210
0.0
220
0.0
230
1.0
 70
     8
 71
     3
 72
     9
 73
     5
 74
     3
 42
0.000000001
 43
0.0000000001
 44
0.00000001
 40
0.0
 40
0.0
 40
0.0
 40
0.0
 40
0.9386305754550409
 40
1.877261150910099
 40
1.877261150910099
 40
1.877261150910099
 40
1.877261150910099
 10
-32.74619918798523
 20
141.1329392739948
 30
0.0
 10
-32.97237980353182
 20
140.9042613050551
 30
0.0
 10
-33.42474101848054
 20
140.4469053567752
 30
0.0
 10
-33.51920904813523
 20
139.8106028158483
 30
0.0
 10
-33.56644305395902
 20
139.4924515420472
 30
0.0
 11
-32.74619918798523
 21
141.1329392739948
 31
0.0
 11
-33.3352677311013
 21
140.4021687130856
 31
0.0
 11
-33.56644305395902
 21
139.4924515420472
 31
0.0
  0
SPLINE
  5
141
330
1F
100
AcDbEntity
  8
0
  6
Continuous
 62
     7
100
AcDbSpline
210
0.0
220
0.0
230
1.0
 70
     8
 71
     3
 72
     9
 73
     5
 74
     3
 42
0.000000001
 43
0.0000000001
 44
0.00000001
 40
0.0
 40
0.0
 40
0.0
 40
0.0
 40
1.132830005348539
 40
2.265660010697093
 40
2.265660010697093
 40
2.265660010697093
 40
2.265660010697093
 10
-32.57649356050048
 20
141.2602184946084
 30
0.0
 10
-32.84947016558833
 20
140.9842278423206
 30
0.0
 10
-33.39542335961956
 20
140.4322465273447
 30
0.0
 10
-33.5094364951816
 20
139.6642951831341
 30
0.0
 10
-33.56644305395903
 20
139.2803195076912
 30
0.0
 11
-32.57649356050048
 21
141.2602184946084
 31
0.0
 11
-33.28743835394653
 21
140.3782540245082
 31
0.0
 11
-33.56644305395903
 21
139.2803195076912
 31
0.0
  0
SPLINE
  5
142
330
1F
100
AcDbEntity
  8
0
  6
Continuous
 62
     7
100
AcDbSpline
210
0.0
220
0.0
230
1.0
 70
     8
 71
     3
 72
     9
 73
     5
 74
     3
 42
0.000000001
 43
0.0000000001
 44
0.00000001
 40
0.0
 40
0.0
 40
0.0
 40
0.0
 40
0.6019276077627264
 40
1.091415128839487
 40
1.091415128839487
 40
1.091415128839487
 40
1.091415128839487
 10
-33.56644305395903
 20
139.2803195076912
 30
0.0
 10
-33.5535390337328
 20
139.0697469852077
 30
0.0
 10
-33.5301414469311
 20
138.6879368975022
 30
0.0
 10
-33.24121173947796
 20
138.4434430967243
 30
0.0
 10
-33.11162997910056
 20
138.3337903571732
 30
0.0
 11
-33.56644305395903
 21
139.2803195076912
 31
0.0
 11
-33.44696552657521
 21
138.6903686887795
 31
0.0
 11
-33.11162997910056
 21
138.3337903571732
 31
0.0
  0
SPLINE
  5
143
330
1F
100
AcDbEntity
  8
0
  6
Continuous
 62
     7
100
AcDbSpline
210
0.0
220
0.0
230
1.0
 70
     8
 71
     3
 72
     9
 73
     5
 74
     3
 42
0.000000001
 43
0.0000000001
 44
0.00000001
 40
0.0
 40
0.0
 40
0.0
 40
0.0
 40
0.4894875210768375
 40
1.091415128839598
 40
1.091415128839598
 40
1.091415128839598
 40
1.091415128839598
 10
-31.54638239517091
 20
141.4642855250324
 30
0.0
 10
-31.71185364303822
 20
141.5021592896037
 30
0.0
 10
-32.0808065081325
 20
141.5866067750995
 30
0.0
 10
-32.40029313037796
 20
141.3762387919175
 30
0.0
 10
-32.57649356050048
 20
141.2602184946084
 30
0.0
 11
-31.54638239517091
 21
141.4642855250324
 31
0.0
 11
-32.03284638894083
 21
141.5186069640484
 31
0.0
 11
-32.57649356050048
 21
141.2602184946084
 31
0.0
  0
SPLINE
  5
144
330
1F
100
AcDbEntity
  8
0
  6
Continuous
 62
     7
100
AcDbSpline
210
0.0
220
0.0
230
1.0
 70
     8
 71
     3
 72
     9
 73
     5
 74
     3
 42
0.000000001
 43
0.0000000001
 44
0.00000001
 40
0.0
 40
0.0
 40
0.0
 40
0.0
 40
0.2120187714429564
 40
0.4187171340041407
 40
0.4187171340041407
 40
0.4187171340041407
 40
0.4187171340041407
 10
-30.39920103531408
 20
140.7529077000088
 30
0.0
 10
-30.43900683687585
 20
140.8124375899613
 30
0.0
 10
-30.51761956592388
 20
140.9300035108754
 30
0.0
 10
-30.63828710845021
 20
141.0036607870264
 30
0.0
 10
-30.69785425774706
 20
141.0400214563205
 30
0.0
 11
-30.39920103531408
 21
140.7529077000088
 31
0.0
 11
-30.52940103239025
 21
140.9202394687237
 31
0.0
 11
-30.69785425774706
 21
141.0400214563205
 31
0.0
  0
SPLINE
  5
145
330
1F
100
AcDbEntity
  8
0
  6
Continuous
 62
     7
100
AcDbSpline
210
0.0
220
0.0
230
1.0
 70
     8
 71
     3
 72
     9
 73
     5
 74
     3
 42
0.000000001
 43
0.0000000001
 44
0.00000001
 40
0.0
 40
0.0
 40
0.0
 40
0.0
 40
0.6019276077627264
 40
1.091415128839497
 40
1.091415128839497
 40
1.091415128839497
 40
1.091415128839497
 10
-32.71791491653518
 20
138.8560554389793
 30
0.0
 10
-32.70501089630896
 20
138.6454829164959
 30
0.0
 10
-32.68161330950725
 20
138.2636728287903
 30
0.0
 10
-32.39268360205411
 20
138.0191790280124
 30
0.0
 10
-32.2631018416767
 20
137.9095262884613
 30
0.0
 11
-32.71791491653518
 21
138.8560554389793
 31
0.0
 11
-32.59843738915136
 21
138.2661046200676
 31
0.0
 11
-32.2631018416767
 21
137.9095262884613
 31
0.0
  0
SPLINE
  5
146
330
1F
100
AcDbEntity
  8
0
  6
Continuous
 62
     7
100
AcDbSpline
210
0.0
220
0.0
230
1.0
 70
     8
 71
     3
 72
     9
 73
     5
 74
     3
 42
0.000000001
 43
0.0000000001
 44
0.00000001
 40
0.0
 40
0.0
 40
0.0
 40
0.0
 40
0.5159379491020119
 40
0.9354986810479407
 40
0.9354986810479407
 40
0.9354986810479407
 40
0.9354986810479407
 10
-32.54113822123854
 20
138.9444437866276
 30
0.0
 10
-32.53007763248197
 20
138.7639530532134
 30
0.0
 10
-32.51002255559334
 20
138.4366872649963
 30
0.0
 10
-32.26236852301783
 20
138.2271211485928
 30
0.0
 10
-32.1512984428017
 20
138.1331330862113
 30
0.0
 11
-32.54113822123854
 21
138.9444437866276
 31
0.0
 11
-32.4387289120559
 21
138.4387716561492
 31
0.0
 11
-32.1512984428017
 21
138.1331330862113
 31
0.0
  0
SPLINE
  5
147
330
1F
100
AcDbEntity
  8
0
  6
Continuous
 62
     7
100
AcDbSpline
210
0.0
220
0.0
230
1.0
 70
     8
 71
     3
 72
    11
 73
     7
 74
     5
 42
0.000000001
 43
0.0000000001
 44
0.00000001
 40
0.0
 40
0.0
 40
0.0
 40
0.0
 40
0.5430935831135123
 40
1.253838670700324
 40
2.081750414187537
 40
2.875319221829627
 40
2.875319221829627
 40
2.875319221829627
 40
2.875319221829627
 10
-30.80965765662205
 20
140.8164146585706
 30
0.0
 10
-30.99612273016973
 20
140.8429311620566
 30
0.0
 10
-31.42661413516692
 20
140.9041497258977
 30
0.0
 10
-31.99595969196806
 20
140.4063941677155
 30
0.0
 10
-32.42960234128538
 20
139.7538393459866
 30
0.0
 10
-32.50448829327113
 20
139.2104056683155
 30
0.0
 10
-32.54113822123854
 20
138.9444437866276
 30
0.0
 11
-30.80965765662205
 21
140.8164146585706
 31
0.0
 11
-31.35262265540782
 21
140.8282322314283
 31
0.0
 11
-31.93516889317848
 21
140.421048642413
 31
0.0
 11
-32.37691170197628
 21
139.7208335699532
 31
0.0
 11
-32.54113822123854
 21
138.9444437866276
 31
0.0
  0
SPLINE
  5
148
330
1F
100
AcDbEntity
  8
0
  6
Continuous
 62
     7
100
AcDbSpline
210
0.0
220
0.0
230
1.0
 70
     8
 71
     3
 72
     9
 73
     5
 74
     3
 42
0.000000001
 43
0.0000000001
 44
0.00000001
 40
0.0
 40
0.0
 40
0.0
 40
0.0
 40
0.2067031490179394
 40
0.4187272319295641
 40
0.4187272319295641
 40
0.4187272319295641
 40
0.4187272319295641
 10
-32.2631018416767
 20
137.9095262884613
 30
0.0
 10
-32.19827142524665
 20
137.8836885054361
 30
0.0
 10
-32.06694172899042
 20
137.8313478445782
 30
0.0
 10
-31.92571795624302
 20
137.8389989386608
 30
0.0
 10
-31.85420877556055
 20
137.8428731083513
 30
0.0
 11
-32.2631018416767
 21
137.9095262884613
 31
0.0
 11
-32.06619953487844
 21
137.8466321393554
 31
0.0
 11
-31.85420877556055
 21
137.8428731083513
 31
0.0
  0
SPLINE
  5
149
330
1F
100
AcDbEntity
  8
0
  6
Continuous
 62
     7
100
AcDbSpline
210
0.0
220
0.0
230
1.0
 70
     8
 71
     3
 72
     9
 73
     5
 74
     3
 42
0.000000001
 43
0.0000000001
 44
0.00000001
 40
0.0
 40
0.0
 40
0.0
 40
0.0
 40
0.601927607762727
 40
1.09141512883951
 40
1.09141512883951
 40
1.09141512883951
 40
1.09141512883951
 10
-32.01080813534864
 20
138.502502048386
 30
0.0
 10
-31.99790411512241
 20
138.2919295259025
 30
0.0
 10
-31.97450652832071
 20
137.910119438197
 30
0.0
 10
-31.68557682086755
 20
137.6656256374191
 30
0.0
 10
-31.55599506049014
 20
137.555972897868
 30
0.0
 11
-32.01080813534864
 21
138.502502048386
 31
0.0
 11
-31.89133060796481
 21
137.9125512294743
 31
0.0
 11
-31.55599506049014
 21
137.555972897868
 31
0.0
  0
SPLINE
  5
14A
330
1F
100
AcDbEntity
  8
0
  6
Continuous
 62
     7
100
AcDbSpline
210
0.0
220
0.0
230
1.0
 70
     8
 71
     3
 72
     9
 73
     5
 74
     3
 42
0.000000001
 43
0.0000000001
 44
0.00000001
 40
0.0
 40
0.0
 40
0.0
 40
0.0
 40
0.6019276077626706
 40
1.09141512883941
 40
1.09141512883941
 40
1.09141512883941
 40
1.09141512883941
 10
-31.3037013541621
 20
138.1489486577927
 30
0.0
 10
-31.29079733393587
 20
137.9383761353092
 30
0.0
 10
-31.26739974713417
 20
137.5565660476037
 30
0.0
 10
-30.97847003968102
 20
137.3120722468259
 30
0.0
 10
-30.84888827930361
 20
137.2024195072748
 30
0.0
 11
-31.3037013541621
 21
138.1489486577927
 31
0.0
 11
-31.18422382677828
 21
137.5589978388811
 31
0.0
 11
-30.84888827930361
 21
137.2024195072748
 31
0.0
  0
SPLINE
  5
14B
330
1F
100
AcDbEntity
  8
0
  6
Continuous
 62
     7
100
AcDbSpline
210
0.0
220
0.0
230
1.0
 70
     8
 71
     3
 72
     9
 73
     5
 74
     3
 42
0.000000001
 43
0.0000000001
 44
0.00000001
 40
0.0
 40
0.0
 40
0.0
 40
0.0
 40
0.2120187714429072
 40
0.4187171340040866
 40
0.4187171340040866
 40
0.4187171340040866
 40
0.4187171340040866
 10
-28.984987472941
 20
140.0458009188223
 30
0.0
 10
-29.02479327450277
 20
140.1053308087748
 30
0.0
 10
-29.10340600355081
 20
140.2228967296888
 30
0.0
 10
-29.22407354607714
 20
140.2965540058399
 30
0.0
 10
-29.28364069537399
 20
140.3329146751339
 30
0.0
 11
-28.984987472941
 21
140.0458009188223
 31
0.0
 11
-29.11518747001717
 21
140.2131326875372
 31
0.0
 11
-29.28364069537399
 21
140.3329146751339
 31
0.0
  0
SPLINE
  5
14C
330
1F
100
AcDbEntity
  8
0
  6
Continuous
 62
     7
100
AcDbSpline
210
0.0
220
0.0
230
1.0
 70
     8
 71
     3
 72
     9
 73
     5
 74
     3
 42
0.000000001
 43
0.0000000001
 44
0.00000001
 40
0.0
 40
0.0
 40
0.0
 40
0.0
 40
0.2067031490179326
 40
0.418727231929565
 40
0.418727231929565
 40
0.418727231929565
 40
0.418727231929565
 10
-30.84888827930361
 20
137.2024195072748
 30
0.0
 10
-30.78405786287356
 20
137.1765817242496
 30
0.0
 10
-30.65272816661732
 20
137.1242410633917
 30
0.0
 10
-30.51150439386993
 20
137.1318921574742
 30
0.0
 10
-30.43999521318746
 20
137.1357663271648
 30
0.0
 11
-30.84888827930361
 21
137.2024195072748
 31
0.0
 11
-30.65198597250535
 21
137.139525358169
 31
0.0
 11
-30.43999521318746
 21
137.1357663271648
 31
0.0
  0
SPLINE
  5
14D
330
1F
100
AcDbEntity
  8
0
  6
Continuous
 62
     7
100
AcDbSpline
210
0.0
220
0.0
230
1.0
 70
     8
 71
     3
 72
     9
 73
     5
 74
     3
 42
0.000000001
 43
0.0000000001
 44
0.00000001
 40
0.0
 40
0.0
 40
0.0
 40
0.0
 40
0.5159379491021233
 40
0.9354986810480546
 40
0.9354986810480546
 40
0.9354986810480546
 40
0.9354986810480546
 10
-31.12692465886546
 20
138.2373370054411
 30
0.0
 10
-31.11586407010889
 20
138.0568462720268
 30
0.0
 10
-31.0958089932203
 20
137.7295804838097
 30
0.0
 10
-30.84815496064473
 20
137.5200143674061
 30
0.0
 10
-30.73708488042862
 20
137.4260263050247
 30
0.0
 11
-31.12692465886546
 21
138.2373370054411
 31
0.0
 11
-31.02451534968282
 21
137.7316648749625
 31
0.0
 11
-30.73708488042862
 21
137.4260263050247
 31
0.0
  0
SPLINE
  5
14E
330
1F
100
AcDbEntity
  8
0
  6
Continuous
 62
     7
100
AcDbSpline
210
0.0
220
0.0
230
1.0
 70
     8
 71
     3
 72
     9
 73
     5
 74
     3
 42
0.000000001
 43
0.0000000001
 44
0.00000001
 40
0.0
 40
0.0
 40
0.0
 40
0.0
 40
0.6019276077626428
 40
1.091415128839409
 40
1.091415128839409
 40
1.091415128839409
 40
1.091415128839409
 10
-30.59659457297554
 20
137.7953952671994
 30
0.0
 10
-30.58369055274931
 20
137.584822744716
 30
0.0
 10
-30.56029296594758
 20
137.2030126570105
 30
0.0
 10
-30.27136325849447
 20
136.9585188562326
 30
0.0
 10
-30.14178149811707
 20
136.8488661166815
 30
0.0
 11
-30.59659457297554
 21
137.7953952671994
 31
0.0
 11
-30.47711704559172
 21
137.2054444482878
 31
0.0
 11
-30.14178149811707
 21
136.8488661166815
 31
0.0
  0
SPLINE
  5
14F
330
1F
100
AcDbEntity
  8
0
  6
Continuous
 62
     7
100
AcDbSpline
210
0.0
220
0.0
230
1.0
 70
     8
 71
     3
 72
     9
 73
     5
 74
     3
 42
0.000000001
 43
0.0000000001
 44
0.00000001
 40
0.0
 40
0.0
 40
0.0
 40
0.0
 40
0.8598965837447303
 40
1.559164472214047
 40
1.559164472214047
 40
1.559164472214047
 40
1.559164472214047
 10
-28.8288276200092
 20
136.3811817048263
 30
0.0
 10
-28.810393305374
 20
136.0803638151351
 30
0.0
 10
-28.77696818883304
 20
135.5349208289646
 30
0.0
 10
-28.36421145674704
 20
135.1856439750632
 30
0.0
 10
-28.17909465588577
 20
135.0289972040034
 30
0.0
 11
-28.8288276200092
 21
136.3811817048263
 31
0.0
 11
-28.65814543802183
 21
135.5383948206151
 31
0.0
 11
-28.17909465588577
 21
135.0289972040034
 31
0.0
  0
SPLINE
  5
150
330
1F
100
AcDbEntity
  8
0
  6
Continuous
 62
     7
100
AcDbSpline
210
0.0
220
0.0
230
1.0
 70
     8
 71
     3
 72
     9
 73
     5
 74
     3
 42
0.000000001
 43
0.0000000001
 44
0.00000001
 40
0.0
 40
0.0
 40
0.0
 40
0.0
 40
0.2470494853041603
 40
0.4606640939032277
 40
0.4606640939032277
 40
0.4606640939032277
 40
0.4606640939032277
 10
-19.5657287864655
 20
137.73387511763
 30
0.0
 10
-19.48707397433962
 20
137.7669396771965
 30
0.0
 10
-19.34040923465313
 20
137.8285939271022
 30
0.0
 10
-19.18881224877177
 20
137.7832864499913
 30
0.0
 10
-19.11851519096551
 20
137.7622769048455
 30
0.0
 11
-19.5657287864655
 21
137.73387511763
 31
0.0
 11
-19.3283457998943
 21
137.8023058638195
 31
0.0
 11
-19.11851519096551
 21
137.7622769048455
 31
0.0
  0
SPLINE
  5
151
330
1F
100
AcDbEntity
  8
0
  6
Continuous
 62
     7
100
AcDbSpline
210
0.0
220
0.0
230
1.0
 70
     8
 71
     3
 72
     9
 73
     5
 74
     3
 42
0.000000001
 43
0.0000000001
 44
0.00000001
 40
0.0
 40
0.0
 40
0.0
 40
0.0
 40
0.6992678884693229
 40
1.55916447221413
 40
1.55916447221413
 40
1.55916447221413
 40
1.55916447221413
 10
-25.9430266787062
 20
139.5011331583625
 30
0.0
 10
-26.1794141760708
 20
139.5552385364157
 30
0.0
 10
-26.70648969844352
 20
139.6758778097436
 30
0.0
 10
-27.16289915730455
 20
139.375352111274
 30
0.0
 10
-27.41461405783864
 20
139.2096088291674
 30
0.0
 11
-25.9430266787062
 21
139.5011331583625
 31
0.0
 11
-26.63797524127724
 21
139.5787352141043
 31
0.0
 11
-27.41461405783864
 21
139.2096088291674
 31
0.0
  0
SPLINE
  5
152
330
1F
100
AcDbEntity
  8
0
  6
Continuous
 62
     7
100
AcDbSpline
210
0.0
220
0.0
230
1.0
 70
     8
 71
     3
 72
     9
 73
     5
 74
     3
 42
0.000000001
 43
0.0000000001
 44
0.00000001
 40
0.0
 40
0.0
 40
0.0
 40
0.0
 40
1.618328580082205
 40
3.236657160164447
 40
3.236657160164447
 40
3.236657160164447
 40
3.236657160164447
 10
-27.41461405783864
 20
139.2096088291674
 30
0.0
 10
-27.80458063677966
 20
138.8153364685096
 30
0.0
 10
-28.58451377851723
 20
138.0267917367935
 30
0.0
 10
-28.74738967884759
 20
136.9297183843738
 30
0.0
 10
-28.8288276200092
 20
136.3811817048263
 30
0.0
 11
-27.41461405783864
 21
139.2096088291674
 31
0.0
 11
-28.4302494771097
 21
137.9496595860898
 31
0.0
 11
-28.8288276200092
 21
136.3811817048263
 31
0.0
  0
SPLINE
  5
153
330
1F
100
AcDbEntity
  8
0
  6
Continuous
 62
     7
100
AcDbSpline
210
0.0
220
0.0
230
1.0
 70
     8
 71
     3
 72
     9
 73
     5
 74
     3
 42
0.000000001
 43
0.0000000001
 44
0.00000001
 40
0.0
 40
0.0
 40
0.0
 40
0.0
 40
1.132830005348566
 40
2.265660010697211
 40
2.265660010697211
 40
2.265660010697211
 40
2.265660010697211
 10
-27.83887812655057
 20
138.8914107776335
 30
0.0
 10
-28.11185473163844
 20
138.6154201253458
 30
0.0
 10
-28.65780792566972
 20
138.0634388103698
 30
0.0
 10
-28.77182106123174
 20
137.2954874661591
 30
0.0
 10
-28.82882762000919
 20
136.9115117907162
 30
0.0
 11
-27.83887812655057
 21
138.8914107776335
 31
0.0
 11
-28.54982291999666
 21
138.0094463075333
 31
0.0
 11
-28.82882762000919
 21
136.9115117907162
 31
0.0
  0
SPLINE
  5
154
330
1F
100
AcDbEntity
  8
0
  6
Continuous
 62
     7
100
AcDbSpline
210
0.0
220
0.0
230
1.0
 70
     8
 71
     3
 72
    11
 73
     7
 74
     5
 42
0.000000001
 43
0.0000000001
 44
0.00000001
 40
0.0
 40
0.0
 40
0.0
 40
0.0
 40
0.6336091810749659
 40
1.462811785020246
 40
2.42870881930481
 40
3.354539094164743
 40
3.354539094164743
 40
3.354539094164743
 40
3.354539094164743
 10
-28.57653391418743
 20
139.9793612845407
 30
0.0
 10
-28.79407650025945
 20
140.0102972053122
 30
0.0
 10
-29.29631647372205
 20
140.0817188657957
 30
0.0
 10
-29.96055295646634
 20
139.5010040447663
 30
0.0
 10
-30.4664693819015
 20
138.7396900866438
 30
0.0
 10
-30.55383632371359
 20
138.1056841289264
 30
0.0
 10
-30.59659457297554
 20
137.7953952671994
 30
0.0
 11
-28.57653391418743
 21
139.9793612845407
 31
0.0
 11
-29.2099930794591
 21
139.9931484528752
 31
0.0
 11
-29.88963035688136
 21
139.5181009323411
 31
0.0
 11
-30.40499696716304
 21
138.7011833477769
 31
0.0
 11
-30.59659457297554
 21
137.7953952671994
 31
0.0
  0
SPLINE
  5
155
330
1F
100
AcDbEntity
  8
0
  6
Continuous
 62
     7
100
AcDbSpline
210
0.0
220
0.0
230
1.0
 70
     8
 71
     3
 72
    11
 73
     7
 74
     5
 42
0.000000001
 43
0.0000000001
 44
0.00000001
 40
0.0
 40
0.0
 40
0.0
 40
0.0
 40
0.5430935831135093
 40
1.253838670700318
 40
2.081750414187503
 40
2.875319221829541
 40
2.875319221829541
 40
2.875319221829541
 40
2.875319221829541
 10
-29.39544409424897
 20
140.109307877384
 30
0.0
 10
-29.58190916779665
 20
140.13582438087
 30
0.0
 10
-30.01240057279382
 20
140.1970429447111
 30
0.0
 10
-30.58174612959498
 20
139.6992873865289
 30
0.0
 10
-31.01538877891227
 20
139.0467325648
 30
0.0
 10
-31.09027473089803
 20
138.5032988871289
 30
0.0
 10
-31.12692465886546
 20
138.2373370054411
 30
0.0
 11
-29.39544409424897
 21
140.109307877384
 31
0.0
 11
-29.93840909303474
 21
140.1211254502417
 31
0.0
 11
-30.52095533080539
 21
139.7139418612264
 31
0.0
 11
-30.96269813960319
 21
139.0137267887667
 31
0.0
 11
-31.12692465886546
 21
138.2373370054411
 31
0.0
  0
SPLINE
  5
156
330
1F
100
AcDbEntity
  8
0
  6
Continuous
 62
     7
100
AcDbSpline
210
0.0
220
0.0
230
1.0
 70
     8
 71
     3
 72
    11
 73
     7
 74
     5
 42
0.000000001
 43
0.0000000001
 44
0.00000001
 40
0.0
 40
0.0
 40
0.0
 40
0.0
 40
0.63360918107496
 40
1.462811785020224
 40
2.428708819304786
 40
3.354539094164749
 40
3.354539094164749
 40
3.354539094164749
 40
3.354539094164749
 10
-29.28364069537399
 20
140.3329146751339
 30
0.0
 10
-29.501183281446
 20
140.3638505959055
 30
0.0
 10
-30.0034232549086
 20
140.435272256389
 30
0.0
 10
-30.6676597376529
 20
139.8545574353596
 30
0.0
 10
-31.17357616308806
 20
139.0932434772371
 30
0.0
 10
-31.26094310490015
 20
138.4592375195197
 30
0.0
 10
-31.3037013541621
 20
138.1489486577927
 30
0.0
 11
-29.28364069537399
 21
140.3329146751339
 31
0.0
 11
-29.91709986064565
 21
140.3467018434685
 31
0.0
 11
-30.59673713806792
 21
139.8716543229344
 31
0.0
 11
-31.11210374834959
 21
139.0547367383702
 31
0.0
 11
-31.3037013541621
 21
138.1489486577927
 31
0.0
  0
SPLINE
  5
157
330
1F
100
AcDbEntity
  8
0
  6
Continuous
 62
     7
100
AcDbSpline
210
0.0
220
0.0
230
1.0
 70
     8
 71
     3
 72
    11
 73
     7
 74
     5
 42
0.000000001
 43
0.0000000001
 44
0.00000001
 40
0.0
 40
0.0
 40
0.0
 40
0.0
 40
0.6336091810749671
 40
1.462811785020234
 40
2.428708819304822
 40
3.354539094164758
 40
3.354539094164758
 40
3.354539094164758
 40
3.354539094164758
 10
-29.99074747656051
 20
140.6864680657272
 30
0.0
 10
-30.20829006263253
 20
140.7174039864988
 30
0.0
 10
-30.71053003609512
 20
140.7888256469824
 30
0.0
 10
-31.37476651883945
 20
140.2081108259529
 30
0.0
 10
-31.88068294427457
 20
139.4467968678304
 30
0.0
 10
-31.96804988608668
 20
138.812790910113
 30
0.0
 10
-32.01080813534864
 20
138.502502048386
 30
0.0
 11
-29.99074747656051
 21
140.6864680657272
 31
0.0
 11
-30.62420664183218
 21
140.7002552340618
 31
0.0
 11
-31.30384391925445
 21
140.2252077135277
 31
0.0
 11
-31.81921052953613
 21
139.4082901289635
 31
0.0
 11
-32.01080813534864
 21
138.502502048386
 31
0.0
  0
SPLINE
  5
158
330
1F
100
AcDbEntity
  8
0
  6
Continuous
 62
     7
100
AcDbSpline
210
0.0
220
0.0
230
1.0
 70
     8
 71
     3
 72
    11
 73
     7
 74
     5
 42
0.000000001
 43
0.0000000001
 44
0.00000001
 40
0.0
 40
0.0
 40
0.0
 40
0.0
 40
0.6336091810749664
 40
1.46281178502023
 40
2.428708819304794
 40
3.354539094164701
 40
3.354539094164701
 40
3.354539094164701
 40
3.354539094164701
 10
-30.69785425774706
 20
141.0400214563205
 30
0.0
 10
-30.91539684381907
 20
141.070957377092
 30
0.0
 10
-31.41763681728168
 20
141.1423790375756
 30
0.0
 10
-32.08187330002598
 20
140.5616642165462
 30
0.0
 10
-32.58778972546113
 20
139.8003502584237
 30
0.0
 10
-32.67515666727322
 20
139.1663443007063
 30
0.0
 10
-32.71791491653518
 20
138.8560554389793
 30
0.0
 11
-30.69785425774706
 21
141.0400214563205
 31
0.0
 11
-31.33131342301873
 21
141.053808624655
 31
0.0
 11
-32.01095070044099
 21
140.578761104121
 31
0.0
 11
-32.52631731072267
 21
139.7618435195567
 31
0.0
 11
-32.71791491653518
 21
138.8560554389793
 31
0.0
  0
SPLINE
  5
159
330
1F
100
AcDbEntity
  8
0
  6
Continuous
 62
     7
100
AcDbSpline
210
0.0
220
0.0
230
1.0
 70
     8
 71
     3
 72
    11
 73
     7
 74
     5
 42
0.000000001
 43
0.0000000001
 44
0.00000001
 40
0.0
 40
0.0
 40
0.0
 40
0.0
 40
1.068084051419572
 40
2.465882734055096
 40
4.094109164364577
 40
5.654794482059508
 40
5.654794482059508
 40
5.654794482059508
 40
5.654794482059508
 10
-23.44368352171484
 20
138.7545768752046
 30
0.0
 10
-23.81039816794816
 20
138.8067259989531
 30
0.0
 10
-24.65703127014754
 20
138.9271225233344
 30
0.0
 10
-25.77674419755486
 20
137.9482032405197
 30
0.0
 10
-26.62957474845917
 20
136.6648454275525
 30
0.0
 10
-26.7768504414556
 20
135.5960925254831
 30
0.0
 10
-26.84892863294007
 20
135.0730341595047
 30
0.0
 11
-23.44368352171484
 21
138.7545768752046
 31
0.0
 11
-24.51151468624842
 21
138.7778181018304
 31
0.0
 11
-25.65718895413749
 21
137.977023709909
 31
0.0
 11
-26.52594981164719
 21
136.5999340670762
 31
0.0
 11
-26.84892863294007
 21
135.0730341595047
 31
0.0
  0
SPLINE
  5
15A
330
1F
100
AcDbEntity
  8
0
  6
Continuous
 62
     7
100
AcDbSpline
210
0.0
220
0.0
230
1.0
 70
     8
 71
     3
 72
    11
 73
     7
 74
     5
 42
0.000000001
 43
0.0000000001
 44
0.00000001
 40
0.0
 40
0.0
 40
0.0
 40
0.0
 40
0.2613877152190323
 40
0.6260808306360722
 40
0.9907739460531167
 40
1.25216166127215
 40
1.25216166127215
 40
1.25216166127215
 40
1.25216166127215
 10
-7.662454287127151
 20
127.006744996382
 30
0.0
 10
-7.570658891440965
 20
127.0071389840313
 30
0.0
 10
-7.350788814469723
 20
127.0080826861377
 30
0.0
 10
-7.150386417153801
 20
127.3097280557703
 30
0.0
 10
-7.029311559837321
 20
127.6510371954025
 30
0.0
 10
-7.160478644334964
 20
127.8274994782433
 30
0.0
 10
-7.215240691627191
 20
127.9011721873819
 30
0.0
 11
-7.662454287127151
 21
127.006744996382
 31
0.0
 11
-7.403319173723109
 21
127.0409872438519
 31
0.0
 11
-7.164986210624608
 21
127.3170279525057
 31
0.0
 11
-7.087153421560703
 21
127.6733187481767
 31
0.0
 11
-7.215240691627191
 21
127.9011721873819
 31
0.0
  0
SPLINE
  5
15B
330
1F
100
AcDbEntity
  8
0
  6
Continuous
 62
     7
100
AcDbSpline
210
0.0
220
0.0
230
1.0
 70
     8
 71
     3
 72
    11
 73
     7
 74
     5
 42
0.000000001
 43
0.0000000001
 44
0.00000001
 40
0.0
 40
0.0
 40
0.0
 40
0.0
 40
0.2725586303321207
 40
0.5747393291453333
 40
0.8402404005795352
 40
1.038963488109078
 40
1.038963488109078
 40
1.038963488109078
 40
1.038963488109078
 10
-7.438847489377185
 20
127.8869712937742
 30
0.0
 10
-7.512727900280579
 20
127.8312082981656
 30
0.0
 10
-7.668518142442355
 20
127.7136218933359
 30
0.0
 10
-7.779976684423062
 20
127.4523559399435
 30
0.0
 10
-7.81989210469665
 20
127.17525194029
 30
0.0
 10
-7.70964738123843
 20
127.0572561323522
 30
0.0
 10
-7.662454287127151
 20
127.006744996382
 30
0.0
 11
-7.438847489377185
 21
127.8869712937742
 31
0.0
 11
-7.642598250862422
 21
127.7059358491199
 31
0.0
 11
-7.771882460255004
 21
127.4328080980835
 31
0.0
 11
-7.779400867100408
 21
127.1674134894402
 31
0.0
 11
-7.662454287127151
 21
127.006744996382
 31
0.0
  0
SPLINE
  5
15C
330
1F
100
AcDbEntity
  8
0
  6
Continuous
 62
     7
100
AcDbSpline
210
0.0
220
0.0
230
1.0
 70
     8
 71
     3
 72
     9
 73
     5
 74
     3
 42
0.000000001
 43
0.0000000001
 44
0.00000001
 40
0.0
 40
0.0
 40
0.0
 40
0.0
 40
0.3088118572112922
 40
0.5758301185412198
 40
0.5758301185412198
 40
0.5758301185412198
 40
0.5758301185412198
 10
-7.43884748937727
 20
128.5364903466125
 30
0.0
 10
-7.340528974034914
 20
128.5778210461484
 30
0.0
 10
-7.157198049757788
 20
128.6548888634089
 30
0.0
 10
-6.967701817451357
 20
128.5982545121212
 30
0.0
 10
-6.879830495002313
 20
128.5719925806318
 30
0.0
 11
-7.43884748937727
 21
128.5364903466125
 31
0.0
 11
-7.142118756163278
 21
128.6220287793494
 31
0.0
 11
-6.879830495002313
 21
128.5719925806318
 31
0.0
  0
SPLINE
  5
15D
330
1F
100
AcDbEntity
  8
0
  6
Continuous
 62
     7
100
AcDbSpline
210
0.0
220
0.0
230
1.0
 70
     8
 71
     3
 72
     9
 73
     5
 74
     3
 42
0.000000001
 43
0.0000000001
 44
0.00000001
 40
0.0
 40
0.0
 40
0.0
 40
0.0
 40
0.6712971729171074
 40
1.49679789332073
 40
1.49679789332073
 40
1.49679789332073
 40
1.49679789332073
 10
-10.0677950371872
 20
126.0851507927872
 30
0.0
 10
-10.24550716601047
 20
126.2355316930016
 30
0.0
 10
-10.64175362820454
 20
126.5708374732031
 30
0.0
 10
-10.67384174078505
 20
127.0944627396565
 30
0.0
 10
-10.69153868283503
 20
127.3832479137631
 30
0.0
 11
-10.0677950371872
 21
126.0851507927872
 31
0.0
 11
-10.52768378810368
 21
126.5741725048045
 31
0.0
 11
-10.69153868283503
 21
127.3832479137631
 31
0.0
  0
SPLINE
  5
15E
330
1F
100
AcDbEntity
  8
0
  6
Continuous
 62
     7
100
AcDbSpline
210
0.0
220
0.0
230
1.0
 70
     8
 71
     3
 72
    11
 73
     7
 74
     5
 42
0.000000001
 43
0.0000000001
 44
0.00000001
 40
0.0
 40
0.0
 40
0.0
 40
0.0
 40
0.4968077252841846
 40
1.160560420270053
 40
1.916012168417913
 40
2.597408738905661
 40
2.597408738905661
 40
2.597408738905661
 40
2.597408738905661
 10
-7.997864483752199
 20
126.3359246031321
 30
0.0
 10
-8.115847220564595
 20
126.4622024446997
 30
0.0
 10
-8.391459054213453
 20
126.7571919578638
 30
0.0
 10
-8.291670478507896
 20
127.4499519709951
 30
0.0
 10
-8.013024134728315
 20
128.1031168626577
 30
0.0
 10
-7.623548515187588
 20
128.397082858684
 30
0.0
 10
-7.43884748937727
 20
128.5364903466125
 30
0.0
 11
-7.997864483752199
 21
126.3359246031321
 31
0.0
 11
-8.290230933685327
 21
126.7375958357776
 31
0.0
 11
-8.271434916571796
 21
127.4010823573859
 31
0.0
 11
-7.948224393090323
 21
128.0839017349768
 31
0.0
 11
-7.43884748937727
 21
128.5364903466125
 31
0.0
  0
SPLINE
  5
15F
330
1F
100
AcDbEntity
  8
0
  6
Continuous
 62
     7
100
AcDbSpline
210
0.0
220
0.0
230
1.0
 70
     8
 71
     3
 72
    11
 73
     7
 74
     5
 42
0.000000001
 43
0.0000000001
 44
0.00000001
 40
0.0
 40
0.0
 40
0.0
 40
0.0
 40
0.6534692904672101
 40
1.565202090733615
 40
2.476934891000033
 40
3.130404181467305
 40
3.130404181467305
 40
3.130404181467305
 40
3.130404181467305
 10
-6.879830495002313
 20
128.5719925806318
 30
0.0
 10
-6.742925376264794
 20
128.3878108071034
 30
0.0
 10
-6.415007641815924
 20
127.9466551075004
 30
0.0
 10
-6.717694796909099
 20
127.0933822456479
 30
0.0
 10
-7.218700793335192
 20
126.3392688044618
 30
0.0
 10
-7.768375993686979
 20
126.3369095722591
 30
0.0
 10
-7.997864483752199
 20
126.3359246031321
 30
0.0
 11
-6.879830495002313
 21
128.5719925806318
 31
0.0
 11
-6.559612319836047
 21
128.0023589826189
 31
0.0
 11
-6.754194292495814
 21
127.1116319934413
 31
0.0
 11
-7.350026700242053
 21
126.4215302218068
 31
0.0
 11
-7.997864483752199
 21
126.3359246031321
 31
0.0
  0
SPLINE
  5
160
330
1F
100
AcDbEntity
  8
0
  6
Continuous
 62
     7
100
AcDbSpline
210
0.0
220
0.0
230
1.0
 70
     8
 71
     3
 72
     9
 73
     5
 74
     3
 42
0.000000001
 43
0.0000000001
 44
0.00000001
 40
0.0
 40
0.0
 40
0.0
 40
0.0
 40
0.106807303137346
 40
0.2303320446272333
 40
0.2303320446272333
 40
0.2303320446272333
 40
0.2303320446272333
 10
-7.215240691627191
 20
127.9011721873819
 30
0.0
 10
-7.250389220147863
 20
127.9116769598405
 30
0.0
 10
-7.326187713179053
 20
127.9343306885982
 30
0.0
 10
-7.399520083684255
 20
127.9035035734019
 30
0.0
 10
-7.438847489377185
 20
127.8869712937742
 30
0.0
 11
-7.215240691627191
 21
127.9011721873819
 31
0.0
 11
-7.320155996091582
 21
127.9211866668689
 31
0.0
 11
-7.438847489377185
 21
127.8869712937742
 31
0.0
  0
SPLINE
  5
161
330
1F
100
AcDbEntity
  8
0
  6
Continuous
 62
     7
100
AcDbSpline
210
0.0
220
0.0
230
1.0
 70
     8
 71
     3
 72
     9
 73
     5
 74
     3
 42
0.000000001
 43
0.0000000001
 44
0.00000001
 40
0.0
 40
0.0
 40
0.0
 40
0.0
 40
0.7828371575406948
 40
1.780604409660369
 40
1.780604409660369
 40
1.780604409660369
 40
1.780604409660369
 10
-7.921169778787391
 20
130.3784013095868
 30
0.0
 10
-7.721154700967569
 20
130.1926829180314
 30
0.0
 10
-7.266209871330624
 20
129.7702566292362
 30
0.0
 10
-7.296389495629469
 20
129.1412138191359
 30
0.0
 10
-7.313300752518888
 20
128.7887277093901
 30
0.0
 11
-7.921169778787391
 21
130.3784013095868
 31
0.0
 11
-7.414893950664002
 21
129.7813093520787
 31
0.0
 11
-7.313300752518888
 21
128.7887277093901
 31
0.0
  0
SPLINE
  5
162
330
1F
100
AcDbEntity
  8
0
  6
Continuous
 62
     7
100
AcDbSpline
210
0.0
220
0.0
230
1.0
 70
     8
 71
     3
 72
    11
 73
     7
 74
     5
 42
0.000000001
 43
0.0000000001
 44
0.00000001
 40
0.0
 40
0.0
 40
0.0
 40
0.0
 40
1.269710089815777
 40
2.594368880371114
 40
3.731561027017993
 40
4.600510762922339
 40
4.600510762922339
 40
4.600510762922339
 40
4.600510762922339
 10
-10.69153868283503
 20
127.3832479137631
 30
0.0
 10
-10.63289879819853
 20
127.8087869236554
 30
0.0
 10
-10.51308128282008
 20
128.6782808096229
 30
0.0
 10
-9.819253039375035
 20
129.7223685225245
 30
0.0
 10
-8.908300149042592
 20
130.5187774270753
 30
0.0
 10
-8.219513897467168
 20
130.4208277153071
 30
0.0
 10
-7.921169778787391
 20
130.3784013095868
 30
0.0
 11
-10.69153868283503
 21
127.3832479137631
 31
0.0
 11
-10.42877625195268
 21
128.6254715673807
 31
0.0
 11
-9.721987757707485
 21
129.7458156835837
 31
0.0
 11
-8.789913777051968
 21
130.3973094261637
 31
0.0
 11
-7.921169778787391
 21
130.3784013095868
 31
0.0
  0
SPLINE
  5
163
330
1F
100
AcDbEntity
  8
0
  6
Continuous
 62
     7
100
AcDbSpline
210
0.0
220
0.0
230
1.0
 70
     8
 71
     3
 72
     9
 73
     5
 74
     3
 42
0.000000001
 43
0.0000000001
 44
0.00000001
 40
0.0
 40
0.0
 40
0.0
 40
0.0
 40
0.6408999872494997
 40
1.07884784470036
 40
1.07884784470036
 40
1.07884784470036
 40
1.07884784470036
 10
-15.84286838117503
 20
127.1874845761144
 30
0.0
 10
-16.04218107466631
 20
127.2899125367226
 30
0.0
 10
-16.37769061625449
 20
127.4623328759878
 30
0.0
 10
-16.50231835123822
 20
127.8116361748134
 30
0.0
 10
-16.55290976901172
 20
127.953432477596
 30
0.0
 11
-15.84286838117503
 21
127.1874845761144
 31
0.0
 11
-16.36638481173052
 21
127.557191681625
 31
0.0
 11
-16.55290976901172
 21
127.953432477596
 31
0.0
  0
SPLINE
  5
164
330
1F
100
AcDbEntity
  8
0
  6
Continuous
 62
     7
100
AcDbSpline
210
0.0
220
0.0
230
1.0
 70
     8
 71
     3
 72
     9
 73
     5
 74
     3
 42
0.000000001
 43
0.0000000001
 44
0.00000001
 40
0.0
 40
0.0
 40
0.0
 40
0.0
 40
0.997767252119644
 40
1.780604409660358
 40
1.780604409660358
 40
1.780604409660358
 40
1.780604409660358
 10
-8.431334741268746
 20
126.5526597318904
 30
0.0
 10
-8.703176874931756
 20
126.3276390605314
 30
0.0
 10
-9.188303348432655
 20
125.9260696750321
 30
0.0
 10
-9.799211277250956
 20
126.0365697654646
 30
0.0
 10
-10.0677950371872
 20
126.0851507927872
 30
0.0
 11
-8.431334741268746
 21
126.5526597318904
 31
0.0
 11
-9.286355974306696
 21
126.0383853047933
 31
0.0
 11
-10.0677950371872
 21
126.0851507927872
 31
0.0
  0
SPLINE
  5
165
330
1F
100
AcDbEntity
  8
0
  6
Continuous
 62
     7
100
AcDbSpline
210
0.0
220
0.0
230
1.0
 70
     8
 71
     3
 72
     9
 73
     5
 74
     3
 42
0.000000001
 43
0.0000000001
 44
0.00000001
 40
0.0
 40
0.0
 40
0.0
 40
0.0
 40
0.1235247414898982
 40
0.2303320446272496
 40
0.2303320446272496
 40
0.2303320446272496
 40
0.2303320446272496
 10
-10.58547266539633
 20
124.8815059813091
 30
0.0
 10
-10.62480007108926
 20
124.8649737016814
 30
0.0
 10
-10.69813244159446
 20
124.8341465864851
 30
0.0
 10
-10.77393093462565
 20
124.8568003152428
 30
0.0
 10
-10.80907946314632
 20
124.8673050877014
 30
0.0
 11
-10.58547266539633
 21
124.8815059813091
 31
0.0
 11
-10.70416415868193
 21
124.8472906082143
 31
0.0
 11
-10.80907946314632
 21
124.8673050877014
 31
0.0
  0
SPLINE
  5
166
330
1F
100
AcDbEntity
  8
0
  6
Continuous
 62
     7
100
AcDbSpline
210
0.0
220
0.0
230
1.0
 70
     8
 71
     3
 72
     9
 73
     5
 74
     3
 42
0.000000001
 43
0.0000000001
 44
0.00000001
 40
0.0
 40
0.0
 40
0.0
 40
0.0
 40
0.1398535755226817
 40
0.3118328901050904
 40
0.3118328901050904
 40
0.3118328901050904
 40
0.3118328901050904
 10
-10.80907946314632
 20
124.8673050877014
 30
0.0
 10
-10.8461028227438
 20
124.898634441427
 30
0.0
 10
-10.92865415586793
 20
124.9684898203826
 30
0.0
 10
-10.93533919310901
 20
125.0775784107243
 30
0.0
 10
-10.9390260559896
 20
125.1377419879047
 30
0.0
 11
-10.80907946314632
 21
124.8673050877014
 31
0.0
 11
-10.90488961958724
 21
124.9691846110383
 31
0.0
 11
-10.9390260559896
 21
125.1377419879047
 31
0.0
  0
SPLINE
  5
167
330
1F
100
AcDbEntity
  8
0
  6
Continuous
 62
     7
100
AcDbSpline
210
0.0
220
0.0
230
1.0
 70
     8
 71
     3
 72
     9
 73
     5
 74
     3
 42
0.000000001
 43
0.0000000001
 44
0.00000001
 40
0.0
 40
0.0
 40
0.0
 40
0.0
 40
0.1398535755226872
 40
0.311832890105097
 40
0.311832890105097
 40
0.311832890105097
 40
0.311832890105097
 10
-13.92034930036711
 20
126.4229400063118
 30
0.0
 10
-13.9573726599646
 20
126.4542693600373
 30
0.0
 10
-14.03992399308875
 20
126.524124738993
 30
0.0
 10
-14.04660903032983
 20
126.6332133293348
 30
0.0
 10
-14.05029589321042
 20
126.6933769065151
 30
0.0
 11
-13.92034930036711
 21
126.4229400063118
 31
0.0
 11
-14.01615945680806
 21
126.5248195296487
 31
0.0
 11
-14.05029589321042
 21
126.6933769065151
 31
0.0
  0
MTEXT
  5
168
330
1F
100
AcDbEntity
  8
1
 62
     7
100
AcDbMText
 10
-88.70000000000005
 20
3.74999999999994
 30
0.0
 40
1.5
 41
0.0
 71
     4
 72
     1
  1
T.Tedeschi
  7
CONVERTER_11
 73
     1
 44
1.32052821128451
  0
MTEXT
  5
169
330
1F
100
AcDbEntity
  8
1
 62
     7
100
AcDbMText
 10
-88.70000000000005
 20
6.24999999999994
 30
0.0
 40
1.5
 41
0.0
 71
     4
 72
     1
  1
12/11/12
  7
CONVERTER_11
 73
     1
 44
1.32052821128451
  0
MTEXT
  5
16A
330
1F
100
AcDbEntity
  8
1
 62
     7
100
AcDbMText
 10
-76.3618496556287
 20
6.25
 30
0.0
 40
2.25
 41
0.0
 71
     4
 72
     1
  1
CL POF SC\PSC contact for POF 1mm
  7
CONVERTER_11
 73
     1
 44
0.90036014405762
  0
MTEXT
  5
16B
330
1F
100
AcDbEntity
  8
1
 62
     7
100
AcDbMText
 10
-20.16184965562866
 20
5.03031971037802
 30
0.0
 40
2.25
 41
0.0
 71
     5
 72
     1
  1
2:1
  7
CONVERTER_11
 73
     1
 44
1.32052821128451
  0
MTEXT
  5
16D
330
1F
100
AcDbEntity
  8
1
 62
     4
100
AcDbMText
 10
-31.38999263964665
 20
93.70809787071096
 30
0.0
 40
1.75
 41
0.0
 71
     2
 72
     1
  1
 
  7
CONVERTER_13
 73
     1
 44
1.32052821128451
  0
DIMENSION
  5
178
330
1F
100
AcDbEntity
  8
1
100
AcDbDimension
  2
*D3
 10
-60.3422390187237
 20
90.26616505818377
 30
0.0
 11
-62.1672390187237
 21
81.61616505818382
 31
0.0
 70
    32
  1
<>
 71
     5
 42
-1.0
 53
90.0
  3
ME10_DIM_10
100
AcDbAlignedDimension
 13
-50.97706464275233
 23
72.96616505818388
 33
0.0
 14
-51.57706464275235
 24
90.26616505818377
 34
0.0
 50
90.0
100
AcDbRotatedDimension
  0
DIMENSION
  5
184
330
1F
100
AcDbEntity
  8
1
100
AcDbDimension
  2
*D4
 10
-51.82706464275235
 20
81.7003167239457
 30
0.0
 11
-39.21649081363214
 21
83.5253167239457
 31
0.0
 70
    32
  1
<>
 71
     5
 42
-1.0
 53
0.00013888888889
  3
ME10_DIM_11
100
AcDbAlignedDimension
 13
-44.62706464275237
 23
82.96616505818388
 33
0.0
 14
-51.82706464275235
 24
82.96616505818388
 34
0.0
100
AcDbRotatedDimension
  0
DIMENSION
  5
190
330
1F
100
AcDbEntity
  8
1
100
AcDbDimension
  2
*D5
 10
-51.62706464275237
 20
75.0580177635881
 30
0.0
 11
-39.16067317530974
 21
76.8830177635881
 31
0.0
 70
    32
  1
<>
 71
     5
 42
-1.0
 53
0.00013888888889
  3
ME10_DIM_12
100
AcDbAlignedDimension
 13
-44.82706464275235
 23
77.46616505818388
 33
0.0
 14
-51.62706464275237
 24
77.46616505818388
 34
0.0
100
AcDbRotatedDimension
  0
DIMENSION
  5
19D
330
1F
100
AcDbEntity
  8
1
100
AcDbDimension
  2
*D6
 10
-49.4770646423836
 20
66.0713779936925
 30
0.0
 11
-40.89101996330204
 21
67.8963779936925
 31
0.0
 70
    32
  1
<>
 71
     5
 42
-1.0
 53
0.00013888888889
  3
ME10_DIM_13
100
AcDbAlignedDimension
 13
-46.97706464238365
 23
70.7661650581844
 33
0.0
 14
-49.4770646423836
 24
70.7661650581844
 34
0.0
100
AcDbRotatedDimension
  0
ENDSEC
  0
SECTION
  2
OBJECTS
  0
DICTIONARY
  5
C
330
0
100
AcDbDictionary
281
     1
  3
ACAD_GROUP
350
D
  3
ACAD_LAYOUT
350
1A
  3
ACAD_MATERIAL
350
3B
  3
ACAD_MLEADERSTYLE
350
1A0
  3
ACAD_MLINESTYLE
350
17
  3
ACAD_PLOTSETTINGS
350
19
  3
ACAD_PLOTSTYLENAME
350
E
  3
ACAD_VISUALSTYLE
350
2A
  3
AcDbVariableDictionary
350
19E
  0
DICTIONARY
  5
D
102
{ACAD_REACTORS
330
C
102
}
330
C
100
AcDbDictionary
281
     1
  0
DICTIONARY
  5
1A
102
{ACAD_REACTORS
330
C
102
}
330
C
100
AcDbDictionary
281
     1
  3
Layout1
350
1E
  3
Layout2
350
26
  3
Model
350
22
  0
DICTIONARY
  5
3B
102
{ACAD_REACTORS
330
C
102
}
330
C
100
AcDbDictionary
281
     1
  3
ByBlock
350
3D
  3
ByLayer
350
3C
  3
Global
350
3E
  0
DICTIONARY
  5
1A0
102
{ACAD_REACTORS
330
C
102
}
330
C
100
AcDbDictionary
281
     1
  0
DICTIONARY
  5
17
102
{ACAD_REACTORS
330
C
102
}
330
C
100
AcDbDictionary
281
     1
  3
Standard
350
18
  0
DICTIONARY
  5
19
102
{ACAD_REACTORS
330
C
102
}
330
C
100
AcDbDictionary
281
     1
  0
ACDBDICTIONARYWDFLT
  5
E
102
{ACAD_REACTORS
330
C
102
}
330
C
100
AcDbDictionary
281
     1
  3
Normal
350
F
100
AcDbDictionaryWithDefault
340
F
  0
DICTIONARY
  5
2A
102
{ACAD_REACTORS
330
C
102
}
330
C
100
AcDbDictionary
281
     1
  3
2dWireframe
350
2F
  3
3D Hidden
350
31
  3
3dWireframe
350
30
  3
Basic
350
32
  3
Brighten
350
36
  3
ColorChange
350
3A
  3
Conceptual
350
34
  3
Dim
350
35
  3
Facepattern
350
39
  3
Flat
350
2B
  3
FlatWithEdges
350
2C
  3
Gouraud
350
2D
  3
GouraudWithEdges
350
2E
  3
Linepattern
350
38
  3
Realistic
350
33
  3
Thicken
350
37
  0
DICTIONARY
  5
19E
102
{ACAD_REACTORS
330
C
102
}
330
C
100
AcDbDictionary
281
     1
  3
DIMASSOC
350
1A1
  3
HIDETEXT
350
1A2
  0
LAYOUT
  5
1E
102
{ACAD_REACTORS
330
1A
102
}
330
1A
100
AcDbPlotSettings
  1

  2
none_device
  4

  6

 40
0.0
 41
0.0
 42
0.0
 43
0.0
 44
0.0
 45
0.0
 46
0.0
 47
0.0
 48
0.0
 49
0.0
140
0.0
141
0.0
142
1.0
143
1.0
 70
   688
 72
     0
 73
     0
 74
     5
  7

 75
    16
147
1.0
148
0.0
149
0.0
100
AcDbLayout
  1
Layout1
 70
     1
 71
     1
 10
0.0
 20
0.0
 11
12.0
 21
9.0
 12
0.0
 22
0.0
 32
0.0
 14
1.00000000000000E+20
 24
1.00000000000000E+20
 34
1.00000000000000E+20
 15
-1.00000000000000E+20
 25
-1.00000000000000E+20
 35
-1.00000000000000E+20
146
0.0
 13
0.0
 23
0.0
 33
0.0
 16
1.0
 26
0.0
 36
0.0
 17
0.0
 27
1.0
 37
0.0
 76
     0
330
1B
  0
LAYOUT
  5
26
102
{ACAD_REACTORS
330
1A
102
}
330
1A
100
AcDbPlotSettings
  1

  2
none_device
  4

  6

 40
0.0
 41
0.0
 42
0.0
 43
0.0
 44
0.0
 45
0.0
 46
0.0
 47
0.0
 48
0.0
 49
0.0
140
0.0
141
0.0
142
1.0
143
1.0
 70
   688
 72
     0
 73
     0
 74
     5
  7

 75
    16
147
1.0
148
0.0
149
0.0
100
AcDbLayout
  1
Layout2
 70
     1
 71
     2
 10
0.0
 20
0.0
 11
0.0
 21
0.0
 12
0.0
 22
0.0
 32
0.0
 14
0.0
 24
0.0
 34
0.0
 15
0.0
 25
0.0
 35
0.0
146
0.0
 13
0.0
 23
0.0
 33
0.0
 16
1.0
 26
0.0
 36
0.0
 17
0.0
 27
1.0
 37
0.0
 76
     0
330
23
  0
LAYOUT
  5
22
102
{ACAD_REACTORS
330
1A
102
}
330
1A
100
AcDbPlotSettings
  1

  2
none_device
  4

  6

 40
0.0
 41
0.0
 42
0.0
 43
0.0
 44
0.0
 45
0.0
 46
0.0
 47
0.0
 48
0.0
 49
0.0
140
0.0
141
0.0
142
1.0
143
1.0
 70
  1712
 72
     0
 73
     0
 74
     0
  7

 75
     0
147
1.0
148
0.0
149
0.0
100
AcDbLayout
  1
Model
 70
     1
 71
     0
 10
0.0
 20
0.0
 11
12.0
 21
9.0
 12
0.0
 22
0.0
 32
0.0
 14
-104.7270646427525
 24
0.0
 34
0.0
 15
0.27293535724763
 25
148.5
 35
0.0
146
0.0
 13
0.0
 23
0.0
 33
0.0
 16
1.0
 26
0.0
 36
0.0
 17
0.0
 27
1.0
 37
0.0
 76
     0
330
1F
331
29
  0
MATERIAL
  5
3D
102
{ACAD_REACTORS
330
3B
102
}
102
{ACAD_XDICTIONARY
360
1C5
102
}
330
3B
100
AcDbMaterial
  1
ByBlock
  0
MATERIAL
  5
3C
102
{ACAD_REACTORS
330
3B
102
}
102
{ACAD_XDICTIONARY
360
1C3
102
}
330
3B
100
AcDbMaterial
  1
ByLayer
  0
MATERIAL
  5
3E
102
{ACAD_REACTORS
330
3B
102
}
102
{ACAD_XDICTIONARY
360
1C7
102
}
330
3B
100
AcDbMaterial
  1
Global
  0
MLINESTYLE
  5
18
102
{ACAD_REACTORS
330
17
102
}
330
17
100
AcDbMlineStyle
  2
Standard
 70
     0
  3

 62
   256
 51
90.0
 52
90.0
 71
     2
 49
0.5
 62
   256
  6
BYLAYER
 49
-0.5
 62
   256
  6
BYLAYER
  0
ACDBPLACEHOLDER
  5
F
102
{ACAD_REACTORS
330
E
102
}
330
E
  0
VISUALSTYLE
  5
2F
102
{ACAD_REACTORS
330
2A
102
}
102
{ACAD_XDICTIONARY
360
1AB
102
}
330
2A
100
AcDbVisualStyle
  2
2dWireframe
 70
     4
 71
     0
 72
     2
 73
     0
 90
        0
 40
-0.6
 41
-30.0
 62
     5
 63
     7
 74
     1
 91
        4
 64
     7
 65
   257
 75
     1
175
     1
 42
1.0
 92
        0
 66
   257
 43
1.0
 76
     1
 77
     6
 78
     2
 67
     7
 79
     5
170
     0
171
     0
290
     0
174
     0
 93
        1
 44
0.0
173
     0
291
     0
 45
0.0
1001
ACAD
1000
AcDbSavedByObjectVersion
1070
     0
  0
VISUALSTYLE
  5
31
102
{ACAD_REACTORS
330
2A
102
}
102
{ACAD_XDICTIONARY
360
1AF
102
}
330
2A
100
AcDbVisualStyle
  2
3D Hidden
 70
     6
 71
     1
 72
     2
 73
     2
 90
        0
 40
-0.6
 41
-30.0
 62
     5
 63
     7
 74
     2
 91
        2
 64
     7
 65
   257
 75
     2
175
     1
 42
40.0
 92
        0
 66
   257
 43
1.0
 76
     1
 77
     6
 78
     2
 67
     7
 79
     3
170
     0
171
     0
290
     0
174
     0
 93
        1
 44
0.0
173
     0
291
     0
 45
0.0
1001
ACAD
1000
AcDbSavedByObjectVersion
1070
     0
  0
VISUALSTYLE
  5
30
102
{ACAD_REACTORS
330
2A
102
}
102
{ACAD_XDICTIONARY
360
1AD
102
}
330
2A
100
AcDbVisualStyle
  2
3dWireframe
 70
     5
 71
     0
 72
     2
 73
     0
 90
        0
 40
-0.6
 41
-30.0
 62
     5
 63
     7
 74
     1
 91
        4
 64
     7
 65
   257
 75
     1
175
     1
 42
1.0
 92
        0
 66
   257
 43
1.0
 76
     1
 77
     6
 78
     2
 67
     7
 79
     5
170
     0
171
     0
290
     0
174
     0
 93
        1
 44
0.0
173
     0
291
     0
 45
0.0
1001
ACAD
1000
AcDbSavedByObjectVersion
1070
     0
  0
VISUALSTYLE
  5
32
102
{ACAD_REACTORS
330
2A
102
}
102
{ACAD_XDICTIONARY
360
1B1
102
}
330
2A
100
AcDbVisualStyle
  2
Basic
 70
     7
 71
     1
 72
     0
 73
     1
 90
        0
 40
-0.6
 41
-30.0
 62
     5
 63
     7
 74
     0
 91
        4
 64
     7
 65
   257
 75
     1
175
     1
 42
1.0
 92
        8
 66
     7
 43
1.0
 76
     1
 77
     6
 78
     2
 67
     7
 79
     5
170
     0
171
     0
290
     0
174
     0
 93
        1
 44
0.0
173
     0
291
     1
 45
0.0
1001
ACAD
1000
AcDbSavedByObjectVersion
1070
     0
  0
VISUALSTYLE
  5
36
102
{ACAD_REACTORS
330
2A
102
}
102
{ACAD_XDICTIONARY
360
1B9
102
}
330
2A
100
AcDbVisualStyle
  2
Brighten
 70
    12
 71
     2
 72
     2
 73
     0
 90
        0
 40
-0.6
 41
-30.0
 62
     5
 63
     7
 74
     1
 91
        4
 64
     7
 65
   257
 75
     1
175
     1
 42
1.0
 92
        8
 66
     7
 43
1.0
 76
     1
 77
     6
 78
     2
 67
     7
 79
     5
170
     0
171
     0
290
     0
174
     0
 93
        1
 44
50.0
173
     0
291
     1
 45
0.0
1001
ACAD
1000
AcDbSavedByObjectVersion
1070
     0
  0
VISUALSTYLE
  5
3A
102
{ACAD_REACTORS
330
2A
102
}
102
{ACAD_XDICTIONARY
360
1C1
102
}
330
2A
100
AcDbVisualStyle
  2
ColorChange
 70
    16
 71
     2
 72
     2
 73
     3
 90
        0
 40
-0.6
 41
-30.0
 62
     5
 63
     8
 74
     1
 91
        4
 64
     7
 65
   257
 75
     1
175
     1
 42
1.0
 92
        8
 66
     8
 43
1.0
 76
     1
 77
     6
 78
     2
 67
     7
 79
     5
170
     0
171
     0
290
     0
174
     0
 93
        1
 44
0.0
173
     0
291
     1
 45
0.0
1001
ACAD
1000
AcDbSavedByObjectVersion
1070
     0
  0
VISUALSTYLE
  5
34
102
{ACAD_REACTORS
330
2A
102
}
102
{ACAD_XDICTIONARY
360
1B5
102
}
330
2A
100
AcDbVisualStyle
  2
Conceptual
 70
     9
 71
     3
 72
     2
 73
     0
 90
        0
 40
-0.6
 41
-30.0
 62
     5
 63
     7
 74
     2
 91
        2
 64
     7
 65
   257
 75
     1
175
     1
 42
40.0
 92
        8
 66
     7
 43
1.0
 76
     1
 77
     6
 78
     2
 67
     7
 79
     3
170
     0
171
     0
290
     0
174
     0
 93
        1
 44
0.0
173
     0
291
     0
 45
0.0
1001
ACAD
1000
AcDbSavedByObjectVersion
1070
     0
  0
VISUALSTYLE
  5
35
102
{ACAD_REACTORS
330
2A
102
}
102
{ACAD_XDICTIONARY
360
1B7
102
}
330
2A
100
AcDbVisualStyle
  2
Dim
 70
    11
 71
     2
 72
     2
 73
     0
 90
        0
 40
-0.6
 41
-30.0
 62
     5
 63
     7
 74
     1
 91
        4
 64
     7
 65
   257
 75
     1
175
     1
 42
1.0
 92
        8
 66
     7
 43
1.0
 76
     1
 77
     6
 78
     2
 67
     7
 79
     5
170
     0
171
     0
290
     0
174
     0
 93
        1
 44
-50.0
173
     0
291
     1
 45
0.0
1001
ACAD
1000
AcDbSavedByObjectVersion
1070
     0
  0
VISUALSTYLE
  5
39
102
{ACAD_REACTORS
330
2A
102
}
102
{ACAD_XDICTIONARY
360
1BF
102
}
330
2A
100
AcDbVisualStyle
  2
Facepattern
 70
    15
 71
     2
 72
     2
 73
     0
 90
        0
 40
-0.6
 41
-30.0
 62
     5
 63
     7
 74
     1
 91
        4
 64
     7
 65
   257
 75
     1
175
     1
 42
1.0
 92
        8
 66
     7
 43
1.0
 76
     1
 77
     6
 78
     2
 67
     7
 79
     5
170
     0
171
     0
290
     0
174
     0
 93
        1
 44
0.0
173
     0
291
     1
 45
0.0
1001
ACAD
1000
AcDbSavedByObjectVersion
1070
     0
  0
VISUALSTYLE
  5
2B
102
{ACAD_REACTORS
330
2A
102
}
102
{ACAD_XDICTIONARY
360
1A3
102
}
330
2A
100
AcDbVisualStyle
  2
Flat
 70
     0
 71
     2
 72
     1
 73
     1
 90
        2
 40
-0.6
 41
30.0
 62
     5
 63
     7
 74
     0
 91
        4
 64
     7
 65
   257
 75
     1
175
     1
 42
1.0
 92
        8
 66
     7
 43
1.0
 76
     1
 77
     6
 78
     2
 67
     7
 79
     5
170
     0
171
     0
290
     0
174
     0
 93
       13
 44
0.0
173
     0
291
     1
 45
0.0
1001
ACAD
1000
AcDbSavedByObjectVersion
1070
     0
  0
VISUALSTYLE
  5
2C
102
{ACAD_REACTORS
330
2A
102
}
102
{ACAD_XDICTIONARY
360
1A5
102
}
330
2A
100
AcDbVisualStyle
  2
FlatWithEdges
 70
     1
 71
     2
 72
     1
 73
     1
 90
        2
 40
-0.6
 41
30.0
 62
     5
 63
     7
 74
     1
 91
        4
 64
     7
 65
   257
 75
     1
175
     1
 42
1.0
 92
        0
 66
   257
 43
1.0
 76
     1
 77
     6
 78
     2
 67
     7
 79
     5
170
     0
171
     0
290
     0
174
     0
 93
       13
 44
0.0
173
     0
291
     1
 45
0.0
1001
ACAD
1000
AcDbSavedByObjectVersion
1070
     0
  0
VISUALSTYLE
  5
2D
102
{ACAD_REACTORS
330
2A
102
}
102
{ACAD_XDICTIONARY
360
1A7
102
}
330
2A
100
AcDbVisualStyle
  2
Gouraud
 70
     2
 71
     2
 72
     2
 73
     1
 90
        2
 40
-0.6
 41
30.0
 62
     5
 63
     7
 74
     0
 91
        4
 64
     7
 65
   257
 75
     1
175
     1
 42
1.0
 92
        0
 66
     7
 43
1.0
 76
     1
 77
     6
 78
     2
 67
     7
 79
     5
170
     0
171
     0
290
     0
174
     0
 93
       13
 44
0.0
173
     0
291
     1
 45
0.0
1001
ACAD
1000
AcDbSavedByObjectVersion
1070
     0
  0
VISUALSTYLE
  5
2E
102
{ACAD_REACTORS
330
2A
102
}
102
{ACAD_XDICTIONARY
360
1A9
102
}
330
2A
100
AcDbVisualStyle
  2
GouraudWithEdges
 70
     3
 71
     2
 72
     2
 73
     1
 90
        2
 40
-0.6
 41
30.0
 62
     5
 63
     7
 74
     1
 91
        4
 64
     7
 65
   257
 75
     1
175
     1
 42
1.0
 92
        0
 66
   257
 43
1.0
 76
     1
 77
     6
 78
     2
 67
     7
 79
     5
170
     0
171
     0
290
     0
174
     0
 93
       13
 44
0.0
173
     0
291
     1
 45
0.0
1001
ACAD
1000
AcDbSavedByObjectVersion
1070
     0
  0
VISUALSTYLE
  5
38
102
{ACAD_REACTORS
330
2A
102
}
102
{ACAD_XDICTIONARY
360
1BD
102
}
330
2A
100
AcDbVisualStyle
  2
Linepattern
 70
    14
 71
     2
 72
     2
 73
     0
 90
        0
 40
-0.6
 41
-30.0
 62
     5
 63
     7
 74
     1
 91
        4
 64
     7
 65
   257
 75
     7
175
     7
 42
1.0
 92
        8
 66
     7
 43
1.0
 76
     1
 77
     6
 78
     2
 67
     7
 79
     5
170
     0
171
     0
290
     0
174
     0
 93
        1
 44
0.0
173
     0
291
     1
 45
0.0
1001
ACAD
1000
AcDbSavedByObjectVersion
1070
     0
  0
VISUALSTYLE
  5
33
102
{ACAD_REACTORS
330
2A
102
}
102
{ACAD_XDICTIONARY
360
1B3
102
}
330
2A
100
AcDbVisualStyle
  2
Realistic
 70
     8
 71
     2
 72
     2
 73
     0
 90
        0
 40
-0.6
 41
-30.0
 62
     5
 63
     7
 74
     1
 91
        0
 64
     7
 65
   257
 75
     1
175
     1
 42
1.0
 92
        8
 66
     8
 43
1.0
 76
     1
 77
     6
 78
     2
 67
     7
 79
     5
170
     0
171
     0
290
     0
174
     0
 93
       13
 44
0.0
173
     0
291
     0
 45
0.0
1001
ACAD
1000
AcDbSavedByObjectVersion
1070
     0
  0
VISUALSTYLE
  5
37
102
{ACAD_REACTORS
330
2A
102
}
102
{ACAD_XDICTIONARY
360
1BB
102
}
330
2A
100
AcDbVisualStyle
  2
Thicken
 70
    13
 71
     2
 72
     2
 73
     0
 90
        0
 40
-0.6
 41
-30.0
 62
     5
 63
     7
 74
     1
 91
        4
 64
     7
 65
   257
 75
     1
175
     1
 42
1.0
 92
       12
 66
     7
 43
1.0
 76
     1
 77
     6
 78
     2
 67
     7
 79
     5
170
     0
171
     0
290
     0
174
     0
 93
        1
 44
0.0
173
     0
291
     1
 45
0.0
1001
ACAD
1000
AcDbSavedByObjectVersion
1070
     0
  0
DICTIONARYVAR
  5
1A1
102
{ACAD_REACTORS
330
19E
102
}
330
19E
100
DictionaryVariables
280
     0
  1
2
  0
DICTIONARYVAR
  5
1A2
102
{ACAD_REACTORS
330
19E
102
}
330
19E
100
DictionaryVariables
280
     0
  1
1
  0
DICTIONARY
  5
1C5
330
3D
100
AcDbDictionary
280
     1
281
     1
  3
ACAD_XREC_ROUNDTRIP
360
1C6
  0
DICTIONARY
  5
1C3
330
3C
100
AcDbDictionary
280
     1
281
     1
  3
ACAD_XREC_ROUNDTRIP
360
1C4
  0
DICTIONARY
  5
1C7
330
3E
100
AcDbDictionary
280
     1
281
     1
  3
ACAD_XREC_ROUNDTRIP
360
1C8
  0
DICTIONARY
  5
1AB
330
2F
100
AcDbDictionary
280
     1
281
     1
  3
ACAD_XREC_ROUNDTRIP
360
1AC
  0
DICTIONARY
  5
1AF
330
31
100
AcDbDictionary
280
     1
281
     1
  3
ACAD_XREC_ROUNDTRIP
360
1B0
  0
DICTIONARY
  5
1AD
330
30
100
AcDbDictionary
280
     1
281
     1
  3
ACAD_XREC_ROUNDTRIP
360
1AE
  0
DICTIONARY
  5
1B1
330
32
100
AcDbDictionary
280
     1
281
     1
  3
ACAD_XREC_ROUNDTRIP
360
1B2
  0
DICTIONARY
  5
1B9
330
36
100
AcDbDictionary
280
     1
281
     1
  3
ACAD_XREC_ROUNDTRIP
360
1BA
  0
DICTIONARY
  5
1C1
330
3A
100
AcDbDictionary
280
     1
281
     1
  3
ACAD_XREC_ROUNDTRIP
360
1C2
  0
DICTIONARY
  5
1B5
330
34
100
AcDbDictionary
280
     1
281
     1
  3
ACAD_XREC_ROUNDTRIP
360
1B6
  0
DICTIONARY
  5
1B7
330
35
100
AcDbDictionary
280
     1
281
     1
  3
ACAD_XREC_ROUNDTRIP
360
1B8
  0
DICTIONARY
  5
1BF
330
39
100
AcDbDictionary
280
     1
281
     1
  3
ACAD_XREC_ROUNDTRIP
360
1C0
  0
DICTIONARY
  5
1A3
330
2B
100
AcDbDictionary
280
     1
281
     1
  3
ACAD_XREC_ROUNDTRIP
360
1A4
  0
DICTIONARY
  5
1A5
330
2C
100
AcDbDictionary
280
     1
281
     1
  3
ACAD_XREC_ROUNDTRIP
360
1A6
  0
DICTIONARY
  5
1A7
330
2D
100
AcDbDictionary
280
     1
281
     1
  3
ACAD_XREC_ROUNDTRIP
360
1A8
  0
DICTIONARY
  5
1A9
330
2E
100
AcDbDictionary
280
     1
281
     1
  3
ACAD_XREC_ROUNDTRIP
360
1AA
  0
DICTIONARY
  5
1BD
330
38
100
AcDbDictionary
280
     1
281
     1
  3
ACAD_XREC_ROUNDTRIP
360
1BE
  0
DICTIONARY
  5
1B3
330
33
100
AcDbDictionary
280
     1
281
     1
  3
ACAD_XREC_ROUNDTRIP
360
1B4
  0
DICTIONARY
  5
1BB
330
37
100
AcDbDictionary
280
     1
281
     1
  3
ACAD_XREC_ROUNDTRIP
360
1BC
  0
XRECORD
  5
1C6
102
{ACAD_REACTORS
330
1C5
102
}
330
1C5
100
AcDbXrecord
280
     1
102
MATERIAL
148
0.0
149
0.0
149
0.0
 93
        0
 94
      127
282
     0
 72
     1
 77
     1
171
     1
175
     1
179
     1
273
     0
  0
XRECORD
  5
1C4
102
{ACAD_REACTORS
330
1C3
102
}
330
1C3
100
AcDbXrecord
280
     1
102
MATERIAL
148
0.0
149
0.0
149
0.0
 93
        0
 94
      127
282
     0
 72
     1
 77
     1
171
     1
175
     1
179
     1
273
     0
  0
XRECORD
  5
1C8
102
{ACAD_REACTORS
330
1C7
102
}
330
1C7
100
AcDbXrecord
280
     1
102
MATERIAL
148
0.0
149
0.0
149
0.0
 93
        0
 94
      127
282
     0
 72
     1
 77
     1
171
     1
175
     1
179
     1
273
     0
  0
XRECORD
  5
1AC
102
{ACAD_REACTORS
330
1AB
102
}
330
1AB
100
AcDbXrecord
280
     1
102
RTVSPropertyOp0
 70
     1
102
RTVSPropertyOp1
 70
     1
102
RTVSPropertyOp2
 70
     1
102
RTVSPropertyOp3
 70
     1
102
RTVSPropertyOp4
 70
     1
102
RTVSPropertyOp5
 70
     1
102
RTVSPropertyOp6
 70
     1
102
RTVSPropertyOp7
 70
     1
102
RTVSPropertyOp8
 70
     1
102
RTVSPropertyOp9
 70
     1
102
RTVSPropertyOp10
 70
     1
102
RTVSPropertyOp11
 70
     1
102
RTVSPropertyOp12
 70
     1
102
RTVSPropertyOp13
 70
     1
102
RTVSPropertyOp14
 70
     1
102
RTVSPropertyOp15
 70
     1
102
RTVSPropertyOp16
 70
     1
102
RTVSPropertyOp17
 70
     1
102
RTVSPropertyOp18
 70
     1
102
RTVSPropertyOp19
 70
     1
102
RTVSPropertyOp20
 70
     1
102
RTVSPropertyOp21
 70
     1
102
RTVSPropertyOp22
 70
     1
102
RTVSPropertyOp23
 70
     1
102
RTVSPropertyOp24
 70
     1
102
RTVSPropertyOp25
 70
     1
102
RTVSPropertyOp26
 70
     1
102
RTVSPropertyOp27
 70
     1
102
RTVSPropertyOp28
 70
     1
102
RTVSPropertyOp29
 70
     1
102
RTVSPropertyOp30
 70
     1
102
RTVSPropertyOp31
 70
     1
102
RTVSPropertyOp32
 70
     1
  0
XRECORD
  5
1B0
102
{ACAD_REACTORS
330
1AF
102
}
330
1AF
100
AcDbXrecord
280
     1
102
RTVSPropertyOp0
 70
     1
102
RTVSPropertyOp1
 70
     1
102
RTVSPropertyOp2
 70
     1
102
RTVSPropertyOp3
 70
     1
102
RTVSPropertyOp4
 70
     1
102
RTVSPropertyOp5
 70
     1
102
RTVSPropertyOp6
 70
     1
102
RTVSPropertyOp7
 70
     1
102
RTVSPropertyOp8
 70
     1
102
RTVSPropertyOp9
 70
     1
102
RTVSPropertyOp10
 70
     1
102
RTVSPropertyOp11
 70
     1
102
RTVSPropertyOp12
 70
     1
102
RTVSPropertyOp13
 70
     1
102
RTVSPropertyOp14
 70
     1
102
RTVSPropertyOp15
 70
     1
102
RTVSPropertyOp16
 70
     1
102
RTVSPropertyOp17
 70
     1
102
RTVSPropertyOp18
 70
     1
102
RTVSPropertyOp19
 70
     1
102
RTVSPropertyOp20
 70
     1
102
RTVSPropertyOp21
 70
     1
102
RTVSPropertyOp22
 70
     1
102
RTVSPropertyOp23
 70
     1
102
RTVSPropertyOp24
 70
     1
102
RTVSPropertyOp25
 70
     1
102
RTVSPropertyOp26
 70
     1
102
RTVSPropertyOp27
 70
     1
102
RTVSPropertyOp28
 70
     1
102
RTVSPropertyOp29
 70
     1
102
RTVSPropertyOp30
 70
     1
102
RTVSPropertyOp31
 70
     1
102
RTVSPropertyOp32
 70
     1
  0
XRECORD
  5
1AE
102
{ACAD_REACTORS
330
1AD
102
}
330
1AD
100
AcDbXrecord
280
     1
102
RTVSPropertyOp0
 70
     1
102
RTVSPropertyOp1
 70
     1
102
RTVSPropertyOp2
 70
     1
102
RTVSPropertyOp3
 70
     1
102
RTVSPropertyOp4
 70
     1
102
RTVSPropertyOp5
 70
     1
102
RTVSPropertyOp6
 70
     1
102
RTVSPropertyOp7
 70
     1
102
RTVSPropertyOp8
 70
     1
102
RTVSPropertyOp9
 70
     1
102
RTVSPropertyOp10
 70
     1
102
RTVSPropertyOp11
 70
     1
102
RTVSPropertyOp12
 70
     1
102
RTVSPropertyOp13
 70
     1
102
RTVSPropertyOp14
 70
     1
102
RTVSPropertyOp15
 70
     1
102
RTVSPropertyOp16
 70
     1
102
RTVSPropertyOp17
 70
     1
102
RTVSPropertyOp18
 70
     1
102
RTVSPropertyOp19
 70
     1
102
RTVSPropertyOp20
 70
     1
102
RTVSPropertyOp21
 70
     1
102
RTVSPropertyOp22
 70
     1
102
RTVSPropertyOp23
 70
     1
102
RTVSPropertyOp24
 70
     1
102
RTVSPropertyOp25
 70
     1
102
RTVSPropertyOp26
 70
     1
102
RTVSPropertyOp27
 70
     1
102
RTVSPropertyOp28
 70
     1
102
RTVSPropertyOp29
 70
     1
102
RTVSPropertyOp30
 70
     1
102
RTVSPropertyOp31
 70
     1
102
RTVSPropertyOp32
 70
     1
  0
XRECORD
  5
1B2
102
{ACAD_REACTORS
330
1B1
102
}
330
1B1
100
AcDbXrecord
280
     1
102
RTVSPropertyOp0
 70
     1
102
RTVSPropertyOp1
 70
     1
102
RTVSPropertyOp2
 70
     1
102
RTVSPropertyOp3
 70
     1
102
RTVSPropertyOp4
 70
     1
102
RTVSPropertyOp5
 70
     1
102
RTVSPropertyOp6
 70
     1
102
RTVSPropertyOp7
 70
     1
102
RTVSPropertyOp8
 70
     1
102
RTVSPropertyOp9
 70
     1
102
RTVSPropertyOp10
 70
     1
102
RTVSPropertyOp11
 70
     1
102
RTVSPropertyOp12
 70
     1
102
RTVSPropertyOp13
 70
     1
102
RTVSPropertyOp14
 70
     1
102
RTVSPropertyOp15
 70
     1
102
RTVSPropertyOp16
 70
     1
102
RTVSPropertyOp17
 70
     1
102
RTVSPropertyOp18
 70
     1
102
RTVSPropertyOp19
 70
     1
102
RTVSPropertyOp20
 70
     1
102
RTVSPropertyOp21
 70
     1
102
RTVSPropertyOp22
 70
     1
102
RTVSPropertyOp23
 70
     1
102
RTVSPropertyOp24
 70
     1
102
RTVSPropertyOp25
 70
     1
102
RTVSPropertyOp26
 70
     1
102
RTVSPropertyOp27
 70
     1
102
RTVSPropertyOp28
 70
     1
102
RTVSPropertyOp29
 70
     1
102
RTVSPropertyOp30
 70
     1
102
RTVSPropertyOp31
 70
     1
102
RTVSPropertyOp32
 70
     1
  0
XRECORD
  5
1BA
102
{ACAD_REACTORS
330
1B9
102
}
330
1B9
100
AcDbXrecord
280
     1
102
RTVSPropertyOp0
 70
     1
102
RTVSPropertyOp1
 70
     1
102
RTVSPropertyOp2
 70
     1
102
RTVSPropertyOp3
 70
     1
102
RTVSPropertyOp4
 70
     1
102
RTVSPropertyOp5
 70
     1
102
RTVSPropertyOp6
 70
     1
102
RTVSPropertyOp7
 70
     1
102
RTVSPropertyOp8
 70
     1
102
RTVSPropertyOp9
 70
     1
102
RTVSPropertyOp10
 70
     1
102
RTVSPropertyOp11
 70
     1
102
RTVSPropertyOp12
 70
     1
102
RTVSPropertyOp13
 70
     1
102
RTVSPropertyOp14
 70
     1
102
RTVSPropertyOp15
 70
     1
102
RTVSPropertyOp16
 70
     1
102
RTVSPropertyOp17
 70
     1
102
RTVSPropertyOp18
 70
     1
102
RTVSPropertyOp19
 70
     1
102
RTVSPropertyOp20
 70
     1
102
RTVSPropertyOp21
 70
     1
102
RTVSPropertyOp22
 70
     1
102
RTVSPropertyOp23
 70
     1
102
RTVSPropertyOp24
 70
     1
102
RTVSPropertyOp25
 70
     1
102
RTVSPropertyOp26
 70
     1
102
RTVSPropertyOp27
 70
     1
102
RTVSPropertyOp28
 70
     1
102
RTVSPropertyOp29
 70
     1
102
RTVSPropertyOp30
 70
     1
102
RTVSPropertyOp31
 70
     1
102
RTVSPropertyOp32
 70
     1
  0
XRECORD
  5
1C2
102
{ACAD_REACTORS
330
1C1
102
}
330
1C1
100
AcDbXrecord
280
     1
102
RTVSPropertyOp0
 70
     1
102
RTVSPropertyOp1
 70
     1
102
RTVSPropertyOp2
 70
     1
102
RTVSPropertyOp3
 70
     1
102
RTVSPropertyOp4
 70
     1
102
RTVSPropertyOp5
 70
     1
102
RTVSPropertyOp6
 70
     1
102
RTVSPropertyOp7
 70
     1
102
RTVSPropertyOp8
 70
     1
102
RTVSPropertyOp9
 70
     1
102
RTVSPropertyOp10
 70
     1
102
RTVSPropertyOp11
 70
     1
102
RTVSPropertyOp12
 70
     1
102
RTVSPropertyOp13
 70
     1
102
RTVSPropertyOp14
 70
     1
102
RTVSPropertyOp15
 70
     1
102
RTVSPropertyOp16
 70
     1
102
RTVSPropertyOp17
 70
     1
102
RTVSPropertyOp18
 70
     1
102
RTVSPropertyOp19
 70
     1
102
RTVSPropertyOp20
 70
     1
102
RTVSPropertyOp21
 70
     1
102
RTVSPropertyOp22
 70
     1
102
RTVSPropertyOp23
 70
     1
102
RTVSPropertyOp24
 70
     1
102
RTVSPropertyOp25
 70
     1
102
RTVSPropertyOp26
 70
     1
102
RTVSPropertyOp27
 70
     1
102
RTVSPropertyOp28
 70
     1
102
RTVSPropertyOp29
 70
     1
102
RTVSPropertyOp30
 70
     1
102
RTVSPropertyOp31
 70
     1
102
RTVSPropertyOp32
 70
     1
  0
XRECORD
  5
1B6
102
{ACAD_REACTORS
330
1B5
102
}
330
1B5
100
AcDbXrecord
280
     1
102
RTVSPropertyOp0
 70
     1
102
RTVSPropertyOp1
 70
     1
102
RTVSPropertyOp2
 70
     1
102
RTVSPropertyOp3
 70
     1
102
RTVSPropertyOp4
 70
     1
102
RTVSPropertyOp5
 70
     1
102
RTVSPropertyOp6
 70
     1
102
RTVSPropertyOp7
 70
     1
102
RTVSPropertyOp8
 70
     1
102
RTVSPropertyOp9
 70
     1
102
RTVSPropertyOp10
 70
     1
102
RTVSPropertyOp11
 70
     1
102
RTVSPropertyOp12
 70
     1
102
RTVSPropertyOp13
 70
     1
102
RTVSPropertyOp14
 70
     1
102
RTVSPropertyOp15
 70
     1
102
RTVSPropertyOp16
 70
     1
102
RTVSPropertyOp17
 70
     1
102
RTVSPropertyOp18
 70
     1
102
RTVSPropertyOp19
 70
     1
102
RTVSPropertyOp20
 70
     1
102
RTVSPropertyOp21
 70
     1
102
RTVSPropertyOp22
 70
     1
102
RTVSPropertyOp23
 70
     1
102
RTVSPropertyOp24
 70
     1
102
RTVSPropertyOp25
 70
     1
102
RTVSPropertyOp26
 70
     1
102
RTVSPropertyOp27
 70
     1
102
RTVSPropertyOp28
 70
     1
102
RTVSPropertyOp29
 70
     1
102
RTVSPropertyOp30
 70
     1
102
RTVSPropertyOp31
 70
     1
102
RTVSPropertyOp32
 70
     1
  0
XRECORD
  5
1B8
102
{ACAD_REACTORS
330
1B7
102
}
330
1B7
100
AcDbXrecord
280
     1
102
RTVSPropertyOp0
 70
     1
102
RTVSPropertyOp1
 70
     1
102
RTVSPropertyOp2
 70
     1
102
RTVSPropertyOp3
 70
     1
102
RTVSPropertyOp4
 70
     1
102
RTVSPropertyOp5
 70
     1
102
RTVSPropertyOp6
 70
     1
102
RTVSPropertyOp7
 70
     1
102
RTVSPropertyOp8
 70
     1
102
RTVSPropertyOp9
 70
     1
102
RTVSPropertyOp10
 70
     1
102
RTVSPropertyOp11
 70
     1
102
RTVSPropertyOp12
 70
     1
102
RTVSPropertyOp13
 70
     1
102
RTVSPropertyOp14
 70
     1
102
RTVSPropertyOp15
 70
     1
102
RTVSPropertyOp16
 70
     1
102
RTVSPropertyOp17
 70
     1
102
RTVSPropertyOp18
 70
     1
102
RTVSPropertyOp19
 70
     1
102
RTVSPropertyOp20
 70
     1
102
RTVSPropertyOp21
 70
     1
102
RTVSPropertyOp22
 70
     1
102
RTVSPropertyOp23
 70
     1
102
RTVSPropertyOp24
 70
     1
102
RTVSPropertyOp25
 70
     1
102
RTVSPropertyOp26
 70
     1
102
RTVSPropertyOp27
 70
     1
102
RTVSPropertyOp28
 70
     1
102
RTVSPropertyOp29
 70
     1
102
RTVSPropertyOp30
 70
     1
102
RTVSPropertyOp31
 70
     1
102
RTVSPropertyOp32
 70
     1
  0
XRECORD
  5
1C0
102
{ACAD_REACTORS
330
1BF
102
}
330
1BF
100
AcDbXrecord
280
     1
102
RTVSPropertyOp0
 70
     1
102
RTVSPropertyOp1
 70
     1
102
RTVSPropertyOp2
 70
     1
102
RTVSPropertyOp3
 70
     1
102
RTVSPropertyOp4
 70
     1
102
RTVSPropertyOp5
 70
     1
102
RTVSPropertyOp6
 70
     1
102
RTVSPropertyOp7
 70
     1
102
RTVSPropertyOp8
 70
     1
102
RTVSPropertyOp9
 70
     1
102
RTVSPropertyOp10
 70
     1
102
RTVSPropertyOp11
 70
     1
102
RTVSPropertyOp12
 70
     1
102
RTVSPropertyOp13
 70
     1
102
RTVSPropertyOp14
 70
     1
102
RTVSPropertyOp15
 70
     1
102
RTVSPropertyOp16
 70
     1
102
RTVSPropertyOp17
 70
     1
102
RTVSPropertyOp18
 70
     1
102
RTVSPropertyOp19
 70
     1
102
RTVSPropertyOp20
 70
     1
102
RTVSPropertyOp21
 70
     1
102
RTVSPropertyOp22
 70
     1
102
RTVSPropertyOp23
 70
     1
102
RTVSPropertyOp24
 70
     1
102
RTVSPropertyOp25
 70
     1
102
RTVSPropertyOp26
 70
     1
102
RTVSPropertyOp27
 70
     1
102
RTVSPropertyOp28
 70
     1
102
RTVSPropertyOp29
 70
     1
102
RTVSPropertyOp30
 70
     1
102
RTVSPropertyOp31
 70
     1
102
RTVSPropertyOp32
 70
     1
  0
XRECORD
  5
1A4
102
{ACAD_REACTORS
330
1A3
102
}
330
1A3
100
AcDbXrecord
280
     1
102
RTVSPropertyOp0
 70
     1
102
RTVSPropertyOp1
 70
     1
102
RTVSPropertyOp2
 70
     1
102
RTVSPropertyOp3
 70
     1
102
RTVSPropertyOp4
 70
     1
102
RTVSPropertyOp5
 70
     1
102
RTVSPropertyOp6
 70
     1
102
RTVSPropertyOp7
 70
     1
102
RTVSPropertyOp8
 70
     1
102
RTVSPropertyOp9
 70
     1
102
RTVSPropertyOp10
 70
     1
102
RTVSPropertyOp11
 70
     1
102
RTVSPropertyOp12
 70
     1
102
RTVSPropertyOp13
 70
     1
102
RTVSPropertyOp14
 70
     1
102
RTVSPropertyOp15
 70
     1
102
RTVSPropertyOp16
 70
     1
102
RTVSPropertyOp17
 70
     1
102
RTVSPropertyOp18
 70
     1
102
RTVSPropertyOp19
 70
     1
102
RTVSPropertyOp20
 70
     1
102
RTVSPropertyOp21
 70
     1
102
RTVSPropertyOp22
 70
     1
102
RTVSPropertyOp23
 70
     1
102
RTVSPropertyOp24
 70
     1
102
RTVSPropertyOp25
 70
     1
102
RTVSPropertyOp26
 70
     1
102
RTVSPropertyOp27
 70
     1
102
RTVSPropertyOp28
 70
     1
102
RTVSPropertyOp29
 70
     1
102
RTVSPropertyOp30
 70
     1
102
RTVSPropertyOp31
 70
     1
102
RTVSPropertyOp32
 70
     1
  0
XRECORD
  5
1A6
102
{ACAD_REACTORS
330
1A5
102
}
330
1A5
100
AcDbXrecord
280
     1
102
RTVSPropertyOp0
 70
     1
102
RTVSPropertyOp1
 70
     1
102
RTVSPropertyOp2
 70
     1
102
RTVSPropertyOp3
 70
     1
102
RTVSPropertyOp4
 70
     1
102
RTVSPropertyOp5
 70
     1
102
RTVSPropertyOp6
 70
     1
102
RTVSPropertyOp7
 70
     1
102
RTVSPropertyOp8
 70
     1
102
RTVSPropertyOp9
 70
     1
102
RTVSPropertyOp10
 70
     1
102
RTVSPropertyOp11
 70
     1
102
RTVSPropertyOp12
 70
     1
102
RTVSPropertyOp13
 70
     1
102
RTVSPropertyOp14
 70
     1
102
RTVSPropertyOp15
 70
     1
102
RTVSPropertyOp16
 70
     1
102
RTVSPropertyOp17
 70
     1
102
RTVSPropertyOp18
 70
     1
102
RTVSPropertyOp19
 70
     1
102
RTVSPropertyOp20
 70
     1
102
RTVSPropertyOp21
 70
     1
102
RTVSPropertyOp22
 70
     1
102
RTVSPropertyOp23
 70
     1
102
RTVSPropertyOp24
 70
     1
102
RTVSPropertyOp25
 70
     1
102
RTVSPropertyOp26
 70
     1
102
RTVSPropertyOp27
 70
     1
102
RTVSPropertyOp28
 70
     1
102
RTVSPropertyOp29
 70
     1
102
RTVSPropertyOp30
 70
     1
102
RTVSPropertyOp31
 70
     1
102
RTVSPropertyOp32
 70
     1
  0
XRECORD
  5
1A8
102
{ACAD_REACTORS
330
1A7
102
}
330
1A7
100
AcDbXrecord
280
     1
102
RTVSPropertyOp0
 70
     1
102
RTVSPropertyOp1
 70
     1
102
RTVSPropertyOp2
 70
     1
102
RTVSPropertyOp3
 70
     1
102
RTVSPropertyOp4
 70
     1
102
RTVSPropertyOp5
 70
     1
102
RTVSPropertyOp6
 70
     1
102
RTVSPropertyOp7
 70
     1
102
RTVSPropertyOp8
 70
     1
102
RTVSPropertyOp9
 70
     1
102
RTVSPropertyOp10
 70
     1
102
RTVSPropertyOp11
 70
     1
102
RTVSPropertyOp12
 70
     1
102
RTVSPropertyOp13
 70
     1
102
RTVSPropertyOp14
 70
     1
102
RTVSPropertyOp15
 70
     1
102
RTVSPropertyOp16
 70
     1
102
RTVSPropertyOp17
 70
     1
102
RTVSPropertyOp18
 70
     1
102
RTVSPropertyOp19
 70
     1
102
RTVSPropertyOp20
 70
     1
102
RTVSPropertyOp21
 70
     1
102
RTVSPropertyOp22
 70
     1
102
RTVSPropertyOp23
 70
     1
102
RTVSPropertyOp24
 70
     1
102
RTVSPropertyOp25
 70
     1
102
RTVSPropertyOp26
 70
     1
102
RTVSPropertyOp27
 70
     1
102
RTVSPropertyOp28
 70
     1
102
RTVSPropertyOp29
 70
     1
102
RTVSPropertyOp30
 70
     1
102
RTVSPropertyOp31
 70
     1
102
RTVSPropertyOp32
 70
     1
  0
XRECORD
  5
1AA
102
{ACAD_REACTORS
330
1A9
102
}
330
1A9
100
AcDbXrecord
280
     1
102
RTVSPropertyOp0
 70
     1
102
RTVSPropertyOp1
 70
     1
102
RTVSPropertyOp2
 70
     1
102
RTVSPropertyOp3
 70
     1
102
RTVSPropertyOp4
 70
     1
102
RTVSPropertyOp5
 70
     1
102
RTVSPropertyOp6
 70
     1
102
RTVSPropertyOp7
 70
     1
102
RTVSPropertyOp8
 70
     1
102
RTVSPropertyOp9
 70
     1
102
RTVSPropertyOp10
 70
     1
102
RTVSPropertyOp11
 70
     1
102
RTVSPropertyOp12
 70
     1
102
RTVSPropertyOp13
 70
     1
102
RTVSPropertyOp14
 70
     1
102
RTVSPropertyOp15
 70
     1
102
RTVSPropertyOp16
 70
     1
102
RTVSPropertyOp17
 70
     1
102
RTVSPropertyOp18
 70
     1
102
RTVSPropertyOp19
 70
     1
102
RTVSPropertyOp20
 70
     1
102
RTVSPropertyOp21
 70
     1
102
RTVSPropertyOp22
 70
     1
102
RTVSPropertyOp23
 70
     1
102
RTVSPropertyOp24
 70
     1
102
RTVSPropertyOp25
 70
     1
102
RTVSPropertyOp26
 70
     1
102
RTVSPropertyOp27
 70
     1
102
RTVSPropertyOp28
 70
     1
102
RTVSPropertyOp29
 70
     1
102
RTVSPropertyOp30
 70
     1
102
RTVSPropertyOp31
 70
     1
102
RTVSPropertyOp32
 70
     1
  0
XRECORD
  5
1BE
102
{ACAD_REACTORS
330
1BD
102
}
330
1BD
100
AcDbXrecord
280
     1
102
RTVSPropertyOp0
 70
     1
102
RTVSPropertyOp1
 70
     1
102
RTVSPropertyOp2
 70
     1
102
RTVSPropertyOp3
 70
     1
102
RTVSPropertyOp4
 70
     1
102
RTVSPropertyOp5
 70
     1
102
RTVSPropertyOp6
 70
     1
102
RTVSPropertyOp7
 70
     1
102
RTVSPropertyOp8
 70
     1
102
RTVSPropertyOp9
 70
     1
102
RTVSPropertyOp10
 70
     1
102
RTVSPropertyOp11
 70
     1
102
RTVSPropertyOp12
 70
     1
102
RTVSPropertyOp13
 70
     1
102
RTVSPropertyOp14
 70
     1
102
RTVSPropertyOp15
 70
     1
102
RTVSPropertyOp16
 70
     1
102
RTVSPropertyOp17
 70
     1
102
RTVSPropertyOp18
 70
     1
102
RTVSPropertyOp19
 70
     1
102
RTVSPropertyOp20
 70
     1
102
RTVSPropertyOp21
 70
     1
102
RTVSPropertyOp22
 70
     1
102
RTVSPropertyOp23
 70
     1
102
RTVSPropertyOp24
 70
     1
102
RTVSPropertyOp25
 70
     1
102
RTVSPropertyOp26
 70
     1
102
RTVSPropertyOp27
 70
     1
102
RTVSPropertyOp28
 70
     1
102
RTVSPropertyOp29
 70
     1
102
RTVSPropertyOp30
 70
     1
102
RTVSPropertyOp31
 70
     1
102
RTVSPropertyOp32
 70
     1
  0
XRECORD
  5
1B4
102
{ACAD_REACTORS
330
1B3
102
}
330
1B3
100
AcDbXrecord
280
     1
102
RTVSPropertyOp0
 70
     1
102
RTVSPropertyOp1
 70
     1
102
RTVSPropertyOp2
 70
     1
102
RTVSPropertyOp3
 70
     1
102
RTVSPropertyOp4
 70
     1
102
RTVSPropertyOp5
 70
     1
102
RTVSPropertyOp6
 70
     1
102
RTVSPropertyOp7
 70
     1
102
RTVSPropertyOp8
 70
     1
102
RTVSPropertyOp9
 70
     1
102
RTVSPropertyOp10
 70
     1
102
RTVSPropertyOp11
 70
     1
102
RTVSPropertyOp12
 70
     1
102
RTVSPropertyOp13
 70
     1
102
RTVSPropertyOp14
 70
     1
102
RTVSPropertyOp15
 70
     1
102
RTVSPropertyOp16
 70
     1
102
RTVSPropertyOp17
 70
     1
102
RTVSPropertyOp18
 70
     1
102
RTVSPropertyOp19
 70
     1
102
RTVSPropertyOp20
 70
     1
102
RTVSPropertyOp21
 70
     1
102
RTVSPropertyOp22
 70
     1
102
RTVSPropertyOp23
 70
     1
102
RTVSPropertyOp24
 70
     1
102
RTVSPropertyOp25
 70
     1
102
RTVSPropertyOp26
 70
     1
102
RTVSPropertyOp27
 70
     1
102
RTVSPropertyOp28
 70
     1
102
RTVSPropertyOp29
 70
     1
102
RTVSPropertyOp30
 70
     1
102
RTVSPropertyOp31
 70
     1
102
RTVSPropertyOp32
 70
     1
  0
XRECORD
  5
1BC
102
{ACAD_REACTORS
330
1BB
102
}
330
1BB
100
AcDbXrecord
280
     1
102
RTVSPropertyOp0
 70
     1
102
RTVSPropertyOp1
 70
     1
102
RTVSPropertyOp2
 70
     1
102
RTVSPropertyOp3
 70
     1
102
RTVSPropertyOp4
 70
     1
102
RTVSPropertyOp5
 70
     1
102
RTVSPropertyOp6
 70
     1
102
RTVSPropertyOp7
 70
     1
102
RTVSPropertyOp8
 70
     1
102
RTVSPropertyOp9
 70
     1
102
RTVSPropertyOp10
 70
     1
102
RTVSPropertyOp11
 70
     1
102
RTVSPropertyOp12
 70
     1
102
RTVSPropertyOp13
 70
     1
102
RTVSPropertyOp14
 70
     1
102
RTVSPropertyOp15
 70
     1
102
RTVSPropertyOp16
 70
     1
102
RTVSPropertyOp17
 70
     1
102
RTVSPropertyOp18
 70
     1
102
RTVSPropertyOp19
 70
     1
102
RTVSPropertyOp20
 70
     1
102
RTVSPropertyOp21
 70
     1
102
RTVSPropertyOp22
 70
     1
102
RTVSPropertyOp23
 70
     1
102
RTVSPropertyOp24
 70
     1
102
RTVSPropertyOp25
 70
     1
102
RTVSPropertyOp26
 70
     1
102
RTVSPropertyOp27
 70
     1
102
RTVSPropertyOp28
 70
     1
102
RTVSPropertyOp29
 70
     1
102
RTVSPropertyOp30
 70
     1
102
RTVSPropertyOp31
 70
     1
102
RTVSPropertyOp32
 70
     1
  0
ENDSEC
  0
EOF
